Star.Wars.Episode.VII.The.Force.Awakens.(2015).2160p.UHD.BluRay.x265-DEPTH

Encodes in the resolution 1080p from retail (BluRay, HDDVD) sources, with one or more English audio tracks only. This section does not include animated or TV/documentary films, it does however include black & white movies.
Post Reply
User avatar
raffe
Donator
Donator
Posts: 2398
Joined: Mon Dec 22, 2008 7:47 am
Has thanked: 133 times
Been thanked: 34 times

Star.Wars.Episode.VII.The.Force.Awakens.(2015).2160p.UHD.BluRay.x265-DEPTH

Post by raffe »

Image

http://www.IMDb.com/title/tt2488496/

Genre : Action / Adventure / Fantasy

Plot : 30 years after the defeat of Darth Vader and the Empire, Rey, a scavenger from the planet Jakku, finds a BB-8 droid that knows the whereabouts of the long lost Luke Skywalker. Rey, as well as a rogue stormtrooper and two smugglers, are thrown into the middle of a battle between the Resistance and the daunting legions of the First Order.

Code: Select all

Video
ID : 1
Format : HEVC
Format/Info : High Efficiency Video Coding
Format profile : Main 10@L5.1@High
HDR format : SMPTE ST 2086, HDR10 compatible
Codec ID : V_MPEGH/ISO/HEVC
Duration : 2 h 18 min
Bit rate : 31.6 Mb/s
Width : 3 840 pixels
Height : 1 600 pixels
Display aspect ratio : 2.40:1
Frame rate mode : Constant
Frame rate : 23.976 (24000/1001) FPS
Color space : YUV
Chroma subsampling : 4:2:0 (Type 2)
Bit depth : 10 bits
Bits/(Pixel*Frame) : 0.215
Stream size : 30.5 GiB (87%)
Writing library : x265 3.3+10-g08d895bb6:[Windows][GCC 10.0.1][64 bit] 10bit
Encoding settings : cpuid=1111039 / frame-threads=4 / numa-pools=20 / wpp / no-pmode / no-pme / no-psnr / no-ssim / log-level=2 / input-csp=1 / input-res=3840x1600 / interlace=0 / total-frames=198679 / level-idc=51 / high-tier=1 / uhd-bd=0 / ref=4 / no-allow-non-conformance / repeat-headers / annexb / aud / hrd / info / hash=0 / no-temporal-layers / no-open-gop / min-keyint=24 / keyint=240 / gop-lookahead=0 / bframes=4 / b-adapt=2 / b-pyramid / bframe-bias=0 / rc-lookahead=25 / lookahead-slices=4 / scenecut=40 / hist-scenecut=0 / radl=0 / no-splice / no-intra-refresh / ctu=64 / min-cu-size=8 / rect / no-amp / max-tu-size=32 / tu-inter-depth=1 / tu-intra-depth=1 / limit-tu=0 / rdoq-level=2 / dynamic-rd=0.00 / no-ssim-rd / signhide / no-tskip / nr-intra=0 / nr-inter=0 / no-constrained-intra / no-strong-intra-smoothing / max-merge=3 / limit-refs=3 / limit-modes / me=3 / subme=3 / merange=57 / temporal-mvp / no-frame-dup / no-hme / weightp / no-weightb / no-analyze-src-pics / deblock=-3:-3 / no-sao / no-sao-non-deblock / rd=4 / selective-sao=0 / no-early-skip / rskip / no-fast-intra / no-tskip-fast / no-cu-lossless / no-b-intra / no-splitrd-skip / rdpenalty=0 / psy-rd=2.00 / psy-rdoq=1.00 / no-rd-refine / no-lossless / cbqpoffs=0 / crqpoffs=0 / rc=crf / crf=14.0 / qcomp=0.60 / qpstep=4 / stats-write=0 / stats-read=0 / vbv-maxrate=160000 / vbv-bufsize=160000 / vbv-init=0.9 / crf-max=0.0 / crf-min=0.0 / ipratio=1.40 / pbratio=1.30 / aq-mode=2 / aq-strength=1.00 / cutree / zone-count=0 / no-strict-cbr / qg-size=32 / no-rc-grain / qpmax=69 / qpmin=0 / no-const-vbv / sar=1 / overscan=0 / videoformat=5 / range=0 / colorprim=9 / transfer=16 / colormatrix=9 / chromaloc=1 / chromaloc-top=2 / chromaloc-bottom=2 / display-window=0 / master-display=G(13250,34500)B(7500,3000)R(34000,16000)WP(15635,16450)L(10000000,1) / cll=0,0 / min-luma=0 / max-luma=1023 / log2-max-poc-lsb=8 / vui-timing-info / vui-hrd-info / slices=1 / no-opt-qp-pps / no-opt-ref-list-length-pps / no-multi-pass-opt-rps / scenecut-bias=0.05 / hist-threshold=0.01 / no-opt-cu-delta-qp / no-aq-motion / hdr10 / hdr10-opt / no-dhdr10-opt / no-idr-recovery-sei / analysis-reuse-level=0 / analysis-save-reuse-level=0 / analysis-load-reuse-level=0 / scale-factor=0 / refine-intra=0 / refine-inter=0 / refine-mv=1 / refine-ctu-distortion=0 / no-limit-sao / ctu-info=0 / no-lowpass-dct / refine-analysis-type=0 / copy-pic=1 / max-ausize-factor=1.0 / no-dynamic-refine / no-single-sei / no-hevc-aq / no-svt / no-field / qp-adaptation-range=1.00 / no-scenecut-aware-qpconformance-window-offsets / right=0 / bottom=0 / decoder-max-rate=0
Default : Yes
Forced : No
Color range : Limited
Color primaries : BT.2020
Transfer characteristics : PQ
Matrix coefficients : BT.2020 non-constant
Mastering display color primaries : Display P3
Mastering display luminance : min: 0.0001 cd/m2, max: 1000 cd/m2

Audio #1
ID : 2
Format : MLP FBA 16-ch
Format/Info : Meridian Lossless Packing FBA with 16-channel presentation
Commercial name : Dolby TrueHD with Dolby Atmos
Codec ID : A_TRUEHD
Duration : 2 h 18 min
Bit rate mode : Variable
Bit rate : 4 150 kb/s
Maximum bit rate : 5 997 kb/s
Channel(s) : 8 channels
Channel layout : L R C LFE Ls Rs Lb Rb
Sampling rate : 48.0 kHz
Frame rate : 1 200.000 FPS (40 SPF)
Compression mode : Lossless
Stream size : 4.00 GiB (11%)
Language : English
Default : Yes
Forced : No
Number of dynamic objects : 13
Bed channel count : 1 channel
Bed channel configuration : LFE

Audio #2
ID : 3
Format : AC-3
Format/Info : Audio Coding 3
Commercial name : Dolby Digital
Codec ID : A_AC3
Duration : 2 h 18 min
Bit rate mode : Constant
Bit rate : 640 kb/s
Channel(s) : 6 channels
Channel layout : L R C LFE Ls Rs
Sampling rate : 48.0 kHz
Frame rate : 31.250 FPS (1536 SPF)
Compression mode : Lossy
Stream size : 632 MiB (2%)
Language : English
Service kind : Complete Main
Default : No
Forced : No

Text #1
ID : 4
Format : UTF-8
Codec ID : S_TEXT/UTF8
Codec ID/Info : UTF-8 Plain Text
Duration : 2 h 0 min
Bit rate : 42 b/s
Count of elements : 1403
Stream size : 37.3 KiB (0%)
Language : English
Default : No
Forced : No

Text #2
ID : 5
Format : UTF-8
Codec ID : S_TEXT/UTF8
Codec ID/Info : UTF-8 Plain Text
Duration : 2 h 6 min
Bit rate : 52 b/s
Count of elements : 1778
Stream size : 48.5 KiB (0%)
Title : SDH
Language : English
Default : No
Forced : No

Text #3
ID : 6
Format : PGS
Muxing mode : zlib
Codec ID : S_HDMV/PGS
Codec ID/Info : Picture based subtitle format used on BDs/HD-DVDs
Duration : 2 h 6 min
Bit rate : 34.2 kb/s
Count of elements : 3556
Stream size : 31.1 MiB (0%)
Title : SDH
Language : English
Default : No
Forced : No

Text #4
ID : 7
Format : PGS
Muxing mode : zlib
Codec ID : S_HDMV/PGS
Codec ID/Info : Picture based subtitle format used on BDs/HD-DVDs
Duration : 2 h 8 min
Bit rate : 24.8 kb/s
Count of elements : 2692
Stream size : 22.8 MiB (0%)
Language : French
Default : No
Forced : No

Text #5
ID : 8
Format : PGS
Muxing mode : zlib
Codec ID : S_HDMV/PGS
Codec ID/Info : Picture based subtitle format used on BDs/HD-DVDs
Duration : 2 h 3 min
Bit rate : 25.6 kb/s
Count of elements : 2648
Stream size : 22.6 MiB (0%)
Language : Spanish
Default : No
Forced : No

Text #6
ID : 9
Format : PGS
Muxing mode : zlib
Codec ID : S_HDMV/PGS
Codec ID/Info : Picture based subtitle format used on BDs/HD-DVDs
Duration : 2 h 17 min
Bit rate : 16.6 kb/s
Count of elements : 2384
Stream size : 16.4 MiB (0%)
Language : Japanese
Default : No
Forced : No

Menu
00:00:00.000 : en:Chapter 01
00:00:09.092 : en:Chapter 02
00:01:42.894 : en:Chapter 03
00:03:51.690 : en:Chapter 04
00:06:12.122 : en:Chapter 05
00:09:33.782 : en:Chapter 06
00:10:43.393 : en:Chapter 07
00:12:35.546 : en:Chapter 08
00:13:39.527 : en:Chapter 09
00:14:48.054 : en:Chapter 10
00:16:45.755 : en:Chapter 11
00:18:04.417 : en:Chapter 12
00:19:21.369 : en:Chapter 13
00:21:26.452 : en:Chapter 14
00:24:03.484 : en:Chapter 15
00:26:46.855 : en:Chapter 16
00:29:54.501 : en:Chapter 17
00:31:49.157 : en:Chapter 18
00:35:51.608 : en:Chapter 19
00:36:40.448 : en:Chapter 20
00:37:45.346 : en:Chapter 21
00:40:19.083 : en:Chapter 22
00:43:39.033 : en:Chapter 23
00:45:29.393 : en:Chapter 24
00:49:22.751 : en:Chapter 25
00:51:19.785 : en:Chapter 26
00:54:13.584 : en:Chapter 27
00:59:48.627 : en:Chapter 28
01:04:15.894 : en:Chapter 29
01:08:37.071 : en:Chapter 30
01:11:07.054 : en:Chapter 31
01:15:16.220 : en:Chapter 32
01:16:49.730 : en:Chapter 33
01:19:37.356 : en:Chapter 34
01:20:56.727 : en:Chapter 35
01:25:36.006 : en:Chapter 36
01:32:12.402 : en:Chapter 37
01:35:28.848 : en:Chapter 38
01:36:34.789 : en:Chapter 39
01:39:28.462 : en:Chapter 40
01:41:29.792 : en:Chapter 41
01:42:57.338 : en:Chapter 42
01:44:59.835 : en:Chapter 43
01:50:33.544 : en:Chapter 44
01:53:39.604 : en:Chapter 45
01:55:21.998 : en:Chapter 46
01:58:05.287 : en:Chapter 47
02:01:05.425 : en:Chapter 48
02:02:32.512 : en:Chapter 49
02:07:07.411 : en:Chapter 50
Star.Wars.Episode.VII.The.Force.Awakens.2015.2160p.UHD.BluRay.x265-DEPTH.mkv  [35.21 Gb]

Post Reply

Return to “Retail 1080p (BluRay, HDDVD)”