Mandy.(2018).HDRip.AC3.x264-CMRG

Movies in one of the following formats: DVD/VHS Screener (DVDScr/VHSScr; essentially pre-released, less-mastered DVDRips/VHSRips; can be clean or have watermarks such as 'Property of' messages, and black & white scenes), Workprint (WP), R5 DVD rip (R5.DVDRip; video encoded from a Russian retail DVD, while Russian audio usually replaced with cinema quality English audio), PDVD rip (PDVDRip; normally well-mastered TCs), VHS rip (VHSRip), and television source encodes (HDTV, DCCap, SatRip, DSR, TVRip).
Post Reply
bjorn j
Donator
Donator
Posts: 2710
Joined: Wed Jan 07, 2009 1:49 pm
Has thanked: 34 times
Been thanked: 6061 times

Mandy.(2018).HDRip.AC3.x264-CMRG

Post by bjorn j » Sat Sep 15, 2018 9:19 pm

Image

https://www.IMDb.com/title/tt6998518/
Genres: Action, Horror, Thriller

Mandy is set in the primal wilderness of 1983 where Red Miller, a broken and haunted man hunts an unhinged religious sect who slaughtered the love of his life.

Code: Select all

Format                                   : Matroska
File size                                : 1.33 GiB
Duration                                 : 2 h 1 min
Overall bit rate                         : 1 567 kb/s

Video
ID                                       : 1
Format                                   : AVC
Format/Info                              : Advanced Video Codec
Format profile                           : High@L4.1
Format settings                          : CABAC / 6 Ref Frames
Format settings, CABAC                   : Yes
Format settings, RefFrames               : 6 frames
Codec ID                                 : V_MPEG4/ISO/AVC
Duration                                 : 2 h 1 min
Bit rate                                 : 1 194 kb/s
Width                                    : 720 pixels
Height                                   : 304 pixels
Display aspect ratio                     : 2.35:1
Frame rate mode                          : Constant
Frame rate                               : 23.976 (24000/1001) FPS
Color space                              : YUV
Chroma subsampling                       : 4:2:0
Bit depth                                : 8 bits
Scan type                                : Progressive
Bits/(Pixel*Frame)                       : 0.228
Stream size                              : 1 024 MiB (75%)

Audio
ID                                       : 2
Format                                   : AC-3
Format/Info                              : Audio Coding 3
Commercial name                          : Dolby Digital
Codec ID                                 : A_AC3
Duration                                 : 2 h 1 min
Bit rate mode                            : Constant
Bit rate                                 : 384 kb/s
Channel(s)                               : 6 channels
Channel layout                           : L R C LFE Ls Rs
Sampling rate                            : 48.0 kHz
Frame rate                               : 31.250 FPS (1536 SPF)
Bit depth                                : 16 bits
Compression mode                         : Lossy
Delay relative to video                  : 22 ms
Stream size                              : 333 MiB (25%)
Language                                 : English
Service kind                             : Complete Main
Default                                  : No
Forced                                   : No

Menu
00:00:00.000                             : en:1
00:09:53.885                             : en:2
00:21:18.611                             : en:3
00:28:19.949                             : en:4
00:41:26.485                             : en:5
00:51:09.067                             : en:6
01:00:52.483                             : en:7
01:09:06.351                             : en:8
01:21:15.038                             : en:9
01:30:52.657                             : en:10
01:40:38.034                             : en:11
01:47:52.134                             : en:12
01:57:14.029                             : en:13
Image
Image
Image
Image

Mandy.2018.HDRip.AC3.x264-CMRG.mkv  [1.33 Gb]

Post Reply

Return to “Non-Retail (DVDScr, WP, R5, PDVD, VHS, LD, HDTV, TV)”