PBS: P.O.V. - S26,27

For educational and documentary series, from History Channel, National Geographic, etc.
Post Reply
chlee
Registered user
Registered user
Posts: 4829
Joined: Fri Aug 26, 2011 2:06 am
Been thanked: 134 times

PBS: P.O.V. - S26,27

Post by chlee » Sun Jul 06, 2014 8:00 pm

P.O.V.

Image

Official Site - TVRage - IMDb - Wikipedia



Season 27 (HDTV)
POV.S27E01.When.I.Walk.HDTV.x264-W4F.mp4  [598.37 Mb]
POV.S27E02.American.Revolutionary.The.Evolution.Of.Grace.Lee.Boggs.HDTV.x264-W4F.mp4  [594.66 Mb]
POV.S27E03.My.Way.To.Olympia.HDTV.x264-W4F.mp4  [371.10 Mb]
POV.S27E05.Dance.For.Me.HDTV.x264-W4F.mp4  [464.96 Mb]
POV.S27E06.Fallen.City.HDTV.x264-W4F.mp4  [310.69 Mb]
POV.S27E07.15.To.Life.Kenneths.Story.HDTV.x264-W4F.mp4  [280.70 Mb]
-thanks: chlee [1]. memor [5].

[ Add all 6 links to your ed2k client ]

User avatar
Will-I-Am
Donator
Donator
Posts: 472
Joined: Mon Apr 19, 2010 9:45 pm
Location: The Big Apple
Has thanked: 1 time
Been thanked: 39 times

Re: PBS: P.O.V. - S26,27

Post by Will-I-Am » Fri Dec 19, 2014 1:11 pm

Listening Is An Act Of Love: A StoryCorps Special (2013)

Image

Official Site - TVRage - IMDb
PBS wrote:The first-ever animated special from StoryCorps celebrates the transformative power of listening. Listening Is an Act of Love features six stories from 10 years of the innovative oral history project. Each story reflects StoryCorps founder Dave Isay's fundamental belief: "We can learn so much about the people all around us — even about the people we already know — just by taking the time to have a conversation." Framing these intimate conversations from across the country is an interview between Isay and his 9-year-old nephew, Benji. As always, the selections provoke both tears and laughter — and highlight the simple joy found in sitting together and asking life's important questions. Funded by the Corporation for Public Broadcasting.Produced in association with American Documentary | POV. This fall, The Penguin Press will release Ties That Bind: Stories of Love and Gratitude from the First Ten Years of StoryCorps — commemorating StoryCorps' decade of recording stories across the country.

Code: Select all

Format                                   : MPEG-4
Format profile                           : Base Media
Codec ID                                 : isom
File size                                : 282 MiB
Duration                                 : 24mn 47s
Overall bit rate mode                    : Variable
Overall bit rate                         : 1 591 Kbps
Encoded date                             : UTC 2013-12-21 14:12:04
Tagged date                              : UTC 2013-12-21 14:12:04

Video
ID                                       : 1
Format                                   : AVC
Format/Info                              : Advanced Video Codec
Format profile                           : High@L4.0
Format settings, CABAC                   : Yes
Format settings, ReFrames                : 6 frames
Codec ID                                 : avc1
Codec ID/Info                            : Advanced Video Coding
Duration                                 : 24mn 47s
Bit rate                                 : 1 462 Kbps
Maximum bit rate                         : 6 929 Kbps
Width                                    : 1 280 pixels
Height                                   : 720 pixels
Display aspect ratio                     : 16:9
Frame rate mode                          : Constant
Frame rate                               : 29.970 fps
Color space                              : YUV
Chroma subsampling                       : 4:2:0
Bit depth                                : 8 bits
Scan type                                : Progressive
Bits/(Pixel*Frame)                       : 0.053
Stream size                              : 259 MiB (92%)
Writing library                          : x264 core 130 r2273 b3065e6
Encoding settings                        : cabac=1 / ref=6 / deblock=0:0:0 / analyse=0x3:0x113 / me=umh / subme=10 / psy=1 / psy_rd=2.00:0.50 / mixed_ref=1 / me_range=24 / chroma_me=1 / trellis=2 / 8x8dct=1 / cqm=0 / deadzone=21,11 / fast_pskip=1 / chroma_qp_offset=-4 / threads=3 / lookahead_threads=1 / sliced_threads=0 / nr=0 / decimate=1 / interlaced=0 / bluray_compat=0 / constrained_intra=0 / bframes=9 / b_pyramid=2 / b_adapt=2 / b_bias=0 / direct=1 / weightb=1 / open_gop=0 / weightp=2 / keyint=300 / keyint_min=30 / scenecut=40 / intra_refresh=0 / rc_lookahead=30 / rc=crf / mbtree=1 / crf=21.0 / qcomp=0.60 / qpmin=0 / qpmax=69 / qpstep=4 / ip_ratio=1.40 / aq=1:1.00
Encoded date                             : UTC 2013-12-11 09:25:02
Tagged date                              : UTC 2013-12-21 14:12:06
Color primaries                          : BT.709
Transfer characteristics                 : BT.709
Matrix coefficients                      : BT.709
Color range                              : Limited

Audio
ID                                       : 2
Format                                   : AAC
Format/Info                              : Advanced Audio Codec
Format profile                           : LC
Codec ID                                 : 40
Duration                                 : 24mn 47s
Bit rate mode                            : Variable
Bit rate                                 : 125 Kbps
Maximum bit rate                         : 189 Kbps
Channel(s)                               : 2 channels
Channel positions                        : Front: L R
Sampling rate                            : 48.0 KHz
Compression mode                         : Lossy
Stream size                              : 22.2 MiB (8%)
Language                                 : English
Encoded date                             : UTC 2013-12-21 14:02:13
Tagged date                              : UTC 2013-12-21 14:12:06

Text
ID                                       : 3
Format                                   : Timed Text
Codec ID                                 : tx3g
Duration                                 : 24mn 17s
Bit rate mode                            : Variable
Bit rate                                 : 110 bps
Stream size                              : 19.5 KiB (0%)
Language                                 : English
Encoded date                             : UTC 2013-12-21 14:12:06
Tagged date                              : UTC 2013-12-21 14:12:06
Listening.Is.An.Act.Of.Love.A.StoryCorps.Special.2013.720p.x264-MVGroup.mp4  [282.05 Mb]

Image Image Image Image Image Image

Post Reply

Return to “Educational”