BBC: Rule Britannia: Music, Mischief And Morals In The 18th Century - S1

For educational and documentary series, from History Channel, National Geographic, etc.
Post Reply
User avatar
Will-I-Am
Donator
Donator
Posts: 472
Joined: Mon Apr 19, 2010 9:45 pm
Location: The Big Apple
Has thanked: 1 time
Been thanked: 39 times

BBC: Rule Britannia: Music, Mischief And Morals In The 18th Century - S1

Post by Will-I-Am » Wed Apr 23, 2014 11:41 am

Rule Britannia: Music, Mischief And Morals In The 18th Century

Image

Official Site
Rule Britannia! Music, Mischief And Morals In The 18th Century follows Suzy Klein as she attempts to tell the story of the composers and musicians that helped shape the musical map of the country during the 18th century including Arne, Avison, Herschell and Handel.

Code: Select all

Source: BBC-FOUR TS[MPEG/MPA] DDD
MPEG 576i (HW Deinterlace) > x264 (High @L3.1) 2pass (BBC-L/R-crop) 700*390 (700Mb) approx. 1.47Mbps
MPA 224Kbps 48Khz > AC3 192Kbps 48Khz


Format : Matroska
Format version : Version 4 / Version 2
File size : 700 MiB
Duration : 58mn 47s
Overall bit rate : 1 665 Kbps

Video
ID : 1
Format : AVC
Format/Info : Advanced Video Codec
Format profile : High@L3.1
Format settings, CABAC : Yes
Format settings, ReFrames : 4 frames
Codec ID : V_MPEG4/ISO/AVC
Duration : 58mn 47s
Bit rate : 1 472 Kbps
Width : 700 pixels
Height : 390 pixels
Display aspect ratio : 16:9
Frame rate mode : Constant
Frame rate : 25.000 fps
Color space : YUV
Chroma subsampling : 4:2:0
Bit depth : 8 bits
Scan type : Progressive
Bits/(Pixel*Frame) : 0.216
Stream size : 606 MiB (86%)
Writing library : x264 core 130 r2274bm c832fe9
Language : English
Default : Yes
Forced : No

Audio
ID : 2
Format : AC-3
Format/Info : Audio Coding 3
Mode extension : CM (complete main)
Format settings, Endianness : Big
Codec ID : A_AC3
Duration : 58mn 47s
Bit rate mode : Constant
Bit rate : 192 Kbps
Channel(s) : 2 channels
Channel positions : Front: L R
Sampling rate : 48.0 KHz
Bit depth : 16 bits
Compression mode : Lossy
Stream size : 80.7 MiB (12%)
Language : English
Default : Yes
Forced : No
Season 1
Rule.Britannia.Music.Mischief.And.Morals.In.The.18th.Century.S01E01.x264.AC3.mkv  [700.25 Mb]
Rule.Britannia.Music.Mischief.And.Morals.In.The.18th.Century.S01E02.x264.AC3.mkv  [700.35 Mb]
Rule.Britannia.Music.Mischief.And.Morals.In.The.18th.Century.S01E03.x264.AC3.mkv  [700.20 Mb]


Image Image Image Image Image Image

[ Add all 3 links to your ed2k client ]

Post Reply

Return to “Educational”