BBC: A Very British Renaissance - S1

For educational and documentary series, from History Channel, National Geographic, etc.
Post Reply
User avatar
Will-I-Am
Donator
Donator
Posts: 471
Joined: Mon Apr 19, 2010 9:45 pm
Location: The Big Apple
Has thanked: 1 time
Been thanked: 40 times

BBC: A Very British Renaissance - S1

Post by Will-I-Am » Sat Apr 05, 2014 12:56 pm

A Very British Renaissance

Image

Official Site


A Very British Renaissance is a documentary series which sees James Fox taking a look at the forgotten British Renaissance as he celebrates a time that saw the country give up its medieval shackles and enter into a world of cutting-edge art, literature, architecture and science.

Code: Select all

Source: BBC-TWO TS[MPEG/MPA] DDD
MPEG 576i (HW Deinterlace) > x264 (High @L3.1) 2pass (BBC-L/R-crop) 700*390 (700Mb) approx. 1.47Mbps
MPA 224Kbps 48Khz > AC3 192Kbps 48Khz


Format : Matroska
Format version : Version 4 / Version 2
File size : 701 MiB
Duration : 58mn 44s
Overall bit rate : 1 667 Kbps

Video
ID : 1
Format : AVC
Format/Info : Advanced Video Codec
Format profile : High@L3.1
Format settings, CABAC : Yes
Format settings, ReFrames : 2 frames
Format settings, GOP : N=1
Codec ID : V_MPEG4/ISO/AVC
Duration : 58mn 44s
Bit rate : 1 473 Kbps
Width : 700 pixels
Height : 390 pixels
Display aspect ratio : 16:9
Frame rate mode : Constant
Frame rate : 25.000 fps
Color space : YUV
Chroma subsampling : 4:2:0
Bit depth : 8 bits
Scan type : Progressive
Bits/(Pixel*Frame) : 0.216
Stream size : 606 MiB (86%)
Writing library : x264 core 130 r2274bm c832fe9
Language : English
Default : Yes
Forced : No

Audio
ID : 2
Format : AC-3
Format/Info : Audio Coding 3
Mode extension : CM (complete main)
Format settings, Endianness : Big
Codec ID : A_AC3
Duration : 58mn 44s
Bit rate mode : Constant
Bit rate : 192 Kbps
Channel(s) : 2 channels
Channel positions : Front: L R
Sampling rate : 48.0 KHz
Bit depth : 16 bits
Compression mode : Lossy
Stream size : 80.7 MiB (12%)
Language : English
Default : Yes
Forced : No
Season 1
A.Very.British.Renaissance.S01E01.The.Renaissance.Arrives.x264.AC3.mkv  [700.63 Mb]
A.Very.British.Renaissance.S01E02.The.Elizabethan.Code.x264.AC3.mkv  [700.38 Mb]
A.Very.British.Renaissance.S01E03.Whose.Renaissance.x264.AC3.mkv  [700.46 Mb]


Image Image Image Image

[ Add all 3 links to your ed2k client ]

Post Reply

Return to “Educational”