Discovery Channel - Tornado Rampage (2011)

For educational and documentary series, from History Channel, National Geographic, etc.
Post Reply
bushymait
Banned
Posts: 361
Joined: Sat Apr 05, 2008 3:59 pm
Been thanked: 50 times

Discovery Channel - Tornado Rampage (2011)

Post by bushymait » Mon May 23, 2011 5:54 pm

Discovery Channel - Tornado Rampage

Image

Discovery Channel
In just three days in April of 2011, over 300 tornadoes battered the United States in one of the most extreme weather events in history – killing hundreds, and destroying nearly everything in their wake.

Code: Select all

General
Format                           : AVI
Format/Info                      : Audio Video Interleave
File size                        : 348 MiB
Duration                         : 43mn 18s
Overall bit rate                 : 1 122 Kbps
Writing library                  : VirtualDub build 32839/release

Video
ID                               : 0
Format                           : MPEG-4 Visual
Format profile                   : Advanced Simple@L5
Format settings, BVOP            : 2
Format settings, QPel            : No
Format settings, GMC             : No warppoints
Format settings, Matrix          : Default (H.263)
Codec ID                         : XviD
Codec ID/Hint                    : XviD
Duration                         : 43mn 18s
Bit rate                         : 988 Kbps
Width                            : 624 pixels
Height                           : 352 pixels
Display aspect ratio             : 16:9
Frame rate                       : 29.970 fps
Color space                      : YUV
Chroma subsampling               : 4:2:0
Bit depth                        : 8 bits
Scan type                        : Progressive
Compression mode                 : Lossy
Bits/(Pixel*Frame)               : 0.150
Stream size                      : 306 MiB (88%)
Writing library                  : XviD 1.2.1 (UTC 2008-12-04)

Audio
ID                               : 1
Format                           : MPEG Audio
Format version                   : Version 1
Format profile                   : Layer 3
Mode                             : Joint stereo
Mode extension                   : MS Stereo
Codec ID                         : 55
Codec ID/Hint                    : MP3
Duration                         : 43mn 18s
Bit rate mode                    : Variable
Bit rate                         : 120 Kbps
Nominal bit rate                 : 128 Kbps
Channel(s)                       : 2 channels
Sampling rate                    : 48.0 KHz
Compression mode                 : Lossy
Stream size                      : 37.3 MiB (11%)
Alignment                        : Aligned on interleaves
Interleave, duration             : 24 ms (0.72 video frame)
Interleave, preload duration     : 529 ms
Writing library                  : LAME3.98r
Encoding settings                : -m j -V 4 -q 2 -lowpass 17 --abr 128
Discovery.Channel.Tornado.Rampage.2011.HDTV.XviD-DiVERGE.avi  [347.71 Mb]

ImageImageImageImage

bushymait
Banned
Posts: 361
Joined: Sat Apr 05, 2008 3:59 pm
Been thanked: 50 times

Re: Discovery Channel - Tornado Rampage (2011)

Post by bushymait » Mon May 23, 2011 10:18 pm

mama_berr wrote:thnx for this bushy, btw, love your new look :clap
yw and thank You also, had to keep up with yours :D

squirrel38
Registered user
Registered user
Posts: 140
Joined: Fri Dec 19, 2008 6:05 pm

Re: Discovery Channel - Tornado Rampage (2011)

Post by squirrel38 » Thu May 26, 2011 9:54 am

Thanks :v

Post Reply

Return to “Educational”