History Channel - WWII in HD (2009)

For educational and documentary series, from History Channel, National Geographic, etc.
Post Reply
the_seba
Registered user
Registered user
Posts: 589
Joined: Fri Jan 09, 2009 5:28 pm
Been thanked: 3 times

History Channel - WWII in HD (2009)

Post by the_seba » Thu Feb 17, 2011 2:54 am

WWII in HD (2009)

Image

History Channel - TVRage


INFO
WWII in HD is the first-ever World War II documentary presented in full, immersive HD color. Culled from thousands of hours of lost and rare color archival footage gathered from a worldwide search through basements and archives, WWII in HD will change the way the world sees this defining conflict. Using footage never before seen by most Americans--converted to HD for unprecedented clarity—viewers will experience the war as if they were actually there, surrounded by the real sights and sounds of the battlefields. Along the way they'll meet a diverse group of soldiers whose wartime diaries and journals show in visceral detail what the war was really like.

This visually astonishing landmark series presents the story of World War II through the eyes of 12 Americans who experienced the war firsthand. Viewers will hear the story of Army nurse June Wandrey, who served from the beginning of the war in North Africa to the liberation of the camps in Germany. They will meet Shelby Westbrook, a young African American from Toledo, who became a member of the famed Tuskegee Airmen; Jimmie Kanaya, the son of Japanese immigrants, who served in the U.S. Army and was imprisoned in Europe; and Jack Werner, a Jewish émigré who escaped from Austria before the war and wound up fighting not against Hitler and the hated Nazis, but in the Pacific Theater.
Part 01: Darkness Falls
As Europe falls under Nazi control, America is unprepared for war and the attack on Pearl Harbor. The first bloody battles are fought on Guadalcanal and in North Africa.

Part 02: Hard Way Back
The Allies take on the daunting forces of the Axis, with victory far from certain. Charles Scheffel battles Rommel's forces in Tunisia and Jack Werner faces bitter combat in the northern Pacific.

Part 03: Bloody Resolve
The Marines assault Tarawa in one of the bloodiest battles yet waged. MacArthur island-hops and Italy's front lines claim a casualty.

Part 04: Battle Stations
The Allies lay plans for the invasion of France; Bert Stiles and the 8th Air Force attempt to clear the skies over Normandy, while the Pacific remains a quagmire. D-Day arrives.

Part 05: Day of Days
The Allies are bogged down in Normandy's hedgerows in the aftermath of D-Day, while on Saipan, victory turns to horror.

Part 06: Point of No Return
The Allies race toward Germany as American Marines battle for ground on Peleliu and across the bloody Pacific.

Part 07: Striking Distance
American forces storm the Philippines while Shelby Westbrook is shot down over Europe. Jack Yusen battles the dangers of the deep when his ship is sunk after a heroic duel.

Part 08: Glory and Guts
The Marine assault on Iwo Jima brings horror and glory. Pilot Bert Stiles engages a German fighter with disastrous consequences. Reinforcements arrive in Europe to push the Allies toward victory.

Part 09: Edge of the Abyss
The Battle of the Bulge pushes the Allies to the brink, and Rockie Blunt barely survives the fight. Okinawa erupts as the Japanese make their last stand. Hitler is handed a final ultimatum.

Part 10: End Game
With the end in sight, Okinawa is a bloody obstacle to victory. The Third Reich ends with a single gunshot. America delivers the final blow to Japan and the world celebrates the fall of the Axis.

TECHNICAL SPECS

Code: Select all

General
Unique ID                        : 233815232931378084351016876356054646662 (0xAFE72D04E0162C24A97CA543D8597F86)
Complete name                    : History.Channel.WWII.In.HD.Part01-02.Darkness.Falls-Hard.Way.Back.720p.HDTV.x264-DHD.mkv
Format                           : Matroska
File size                        : 2.19 GiB
Duration                         : 1h 34mn
Overall bit rate                 : 3 322 Kbps
Encoded date                     : UTC 2009-11-18 16:04:19
Writing application              : mkvmerge v2.3.0 ('Freak U') built on Sep  8 2008 18:32:16
Writing library                  : libebml v0.7.7 + libmatroska v0.8.1

Video
ID                               : 2
Format                           : AVC
Format/Info                      : Advanced Video Codec
Format profile                   : High@L3.1
Format settings, CABAC           : Yes
Format settings, ReFrames        : 5 frames
Codec ID                         : V_MPEG4/ISO/AVC
Duration                         : 1h 34mn
Bit rate                         : 2 935 Kbps
Width                            : 1 280 pixels
Height                           : 720 pixels
Display aspect ratio             : 16:9
Frame rate                       : 23.976 fps
Color space                      : YUV
Chroma subsampling               : 4:2:0
Bit depth                        : 8 bits
Scan type                        : Progressive
Bits/(Pixel*Frame)               : 0.133
Stream size                      : 1.89 GiB (86%)
Writing library                  : x264 core 68 r1184tw
Encoding settings                : cabac=1 / ref=5 / deblock=1:0:0 / analyse=0x3:0x113 / me=umh / subme=8 / psy_rd=1.0:0.0 / mixed_ref=1 / me_range=16 / chroma_me=1 / trellis=1 / 8x8dct=1 / cqm=0 / deadzone=21,11 / chroma_qp_offset=-2 / threads=6 / nr=0 / decimate=1 / mbaff=0 / bframes=3 / b_pyramid=1 / b_adapt=1 / b_bias=0 / direct=1 / wpredb=1 / keyint=240 / keyint_min=24 / scenecut=40 / rc=2pass / bitrate=2935 / ratetol=1.0 / qcomp=0.60 / qpmin=10 / qpmax=51 / qpstep=4 / cplxblur=20.0 / qblur=0.5 / ip_ratio=1.40 / pb_ratio=1.30 / aq=1:1.00
Language                         : English

Audio
ID                               : 1
Format                           : AC-3
Format/Info                      : Audio Coding 3
Mode extension                   : CM (complete main)
Codec ID                         : A_AC3
Duration                         : 1h 34mn
Bit rate mode                    : Constant
Bit rate                         : 384 Kbps
Channel(s)                       : 2 channels
Channel positions                : Front: L R
Sampling rate                    : 48.0 KHz
Bit depth                        : 16 bits
Compression mode                 : Lossy
Stream size                      : 259 MiB (12%)

General
Unique ID                        : 195013321510534658725095281135569871668 (0x92B63315642C9653BEE19F7FAAE42334)
Complete name                    : History.Channel.WWII.In.HD.Part03.Bloody.Resolve.720p.HDTV.x264-DHD.mkv
Format                           : Matroska
File size                        : 1.09 GiB
Duration                         : 44mn 50s
Overall bit rate                 : 3 488 Kbps
Encoded date                     : UTC 2009-11-18 23:46:40
Writing application              : mkvmerge v2.3.0 ('Freak U') built on Sep  8 2008 18:32:16
Writing library                  : libebml v0.7.7 + libmatroska v0.8.1

Video
ID                               : 2
Format                           : AVC
Format/Info                      : Advanced Video Codec
Format profile                   : High@L3.1
Format settings, CABAC           : Yes
Format settings, ReFrames        : 5 frames
Codec ID                         : V_MPEG4/ISO/AVC
Duration                         : 44mn 50s
Bit rate                         : 3 101 Kbps
Width                            : 1 280 pixels
Height                           : 720 pixels
Display aspect ratio             : 16:9
Frame rate                       : 23.976 fps
Color space                      : YUV
Chroma subsampling               : 4:2:0
Bit depth                        : 8 bits
Scan type                        : Progressive
Bits/(Pixel*Frame)               : 0.140
Stream size                      : 973 MiB (87%)
Writing library                  : x264 core 68 r1184tw
Encoding settings                : cabac=1 / ref=5 / deblock=1:0:0 / analyse=0x3:0x113 / me=umh / subme=8 / psy_rd=1.0:0.0 / mixed_ref=1 / me_range=16 / chroma_me=1 / trellis=1 / 8x8dct=1 / cqm=0 / deadzone=21,11 / chroma_qp_offset=-2 / threads=6 / nr=0 / decimate=1 / mbaff=0 / bframes=3 / b_pyramid=1 / b_adapt=1 / b_bias=0 / direct=1 / wpredb=1 / keyint=240 / keyint_min=24 / scenecut=40 / rc=2pass / bitrate=3101 / ratetol=1.0 / qcomp=0.60 / qpmin=10 / qpmax=51 / qpstep=4 / cplxblur=20.0 / qblur=0.5 / ip_ratio=1.40 / pb_ratio=1.30 / aq=1:1.00
Language                         : English

Audio
ID                               : 1
Format                           : AC-3
Format/Info                      : Audio Coding 3
Mode extension                   : CM (complete main)
Codec ID                         : A_AC3
Duration                         : 44mn 50s
Bit rate mode                    : Constant
Bit rate                         : 384 Kbps
Channel(s)                       : 2 channels
Channel positions                : Front: L R
Sampling rate                    : 48.0 KHz
Bit depth                        : 16 bits
Compression mode                 : Lossy
Stream size                      : 123 MiB (11%)

General
Unique ID                        : 189847366247683534076417563844022068121 (0x8ED345D31251DB599BD776BC886B6399)
Complete name                    : History.Channel.WWII.In.HD.Part04.Battle.Stations.720p.HDTV.x264-DHD.mkv
Format                           : Matroska
File size                        : 1.09 GiB
Duration                         : 44mn 57s
Overall bit rate                 : 3 479 Kbps
Encoded date                     : UTC 2009-11-19 00:48:09
Writing application              : mkvmerge v2.3.0 ('Freak U') built on Sep  8 2008 18:32:16
Writing library                  : libebml v0.7.7 + libmatroska v0.8.1

Video
ID                               : 2
Format                           : AVC
Format/Info                      : Advanced Video Codec
Format profile                   : High@L3.1
Format settings, CABAC           : Yes
Format settings, ReFrames        : 5 frames
Codec ID                         : V_MPEG4/ISO/AVC
Duration                         : 44mn 57s
Bit rate                         : 3 092 Kbps
Width                            : 1 280 pixels
Height                           : 720 pixels
Display aspect ratio             : 16:9
Frame rate                       : 23.976 fps
Color space                      : YUV
Chroma subsampling               : 4:2:0
Bit depth                        : 8 bits
Scan type                        : Progressive
Bits/(Pixel*Frame)               : 0.140
Stream size                      : 973 MiB (87%)
Writing library                  : x264 core 68 r1184tw
Encoding settings                : cabac=1 / ref=5 / deblock=1:0:0 / analyse=0x3:0x113 / me=umh / subme=8 / psy_rd=1.0:0.0 / mixed_ref=1 / me_range=16 / chroma_me=1 / trellis=1 / 8x8dct=1 / cqm=0 / deadzone=21,11 / chroma_qp_offset=-2 / threads=6 / nr=0 / decimate=1 / mbaff=0 / bframes=3 / b_pyramid=1 / b_adapt=1 / b_bias=0 / direct=1 / wpredb=1 / keyint=240 / keyint_min=24 / scenecut=40 / rc=2pass / bitrate=3092 / ratetol=1.0 / qcomp=0.60 / qpmin=10 / qpmax=51 / qpstep=4 / cplxblur=20.0 / qblur=0.5 / ip_ratio=1.40 / pb_ratio=1.30 / aq=1:1.00
Language                         : English

Audio
ID                               : 1
Format                           : AC-3
Format/Info                      : Audio Coding 3
Mode extension                   : CM (complete main)
Codec ID                         : A_AC3
Duration                         : 44mn 57s
Bit rate mode                    : Constant
Bit rate                         : 384 Kbps
Channel(s)                       : 2 channels
Channel positions                : Front: L R
Sampling rate                    : 48.0 KHz
Bit depth                        : 16 bits
Compression mode                 : Lossy
Stream size                      : 123 MiB (11%)

General
Unique ID                        : 170904906532278555552129369307160602906 (0x8093167461581DCDAF416FA318A5691A)
Complete name                    : History.Channel.WWII.In.HD.Part05.Day.of.Days.720p.HDTV.x264-DHD.mkv
Format                           : Matroska
File size                        : 1.09 GiB
Duration                         : 44mn 51s
Overall bit rate                 : 3 487 Kbps
Encoded date                     : UTC 2009-11-19 03:59:45
Writing application              : mkvmerge v2.3.0 ('Freak U') built on Sep  8 2008 18:32:16
Writing library                  : libebml v0.7.7 + libmatroska v0.8.1

Video
ID                               : 2
Format                           : AVC
Format/Info                      : Advanced Video Codec
Format profile                   : High@L3.1
Format settings, CABAC           : Yes
Format settings, ReFrames        : 5 frames
Codec ID                         : V_MPEG4/ISO/AVC
Duration                         : 44mn 51s
Bit rate                         : 3 100 Kbps
Width                            : 1 280 pixels
Height                           : 720 pixels
Display aspect ratio             : 16:9
Frame rate                       : 23.976 fps
Color space                      : YUV
Chroma subsampling               : 4:2:0
Bit depth                        : 8 bits
Scan type                        : Progressive
Bits/(Pixel*Frame)               : 0.140
Stream size                      : 973 MiB (87%)
Writing library                  : x264 core 68 r1184tw
Encoding settings                : cabac=1 / ref=5 / deblock=1:0:0 / analyse=0x3:0x113 / me=umh / subme=8 / psy_rd=1.0:0.0 / mixed_ref=1 / me_range=16 / chroma_me=1 / trellis=1 / 8x8dct=1 / cqm=0 / deadzone=21,11 / chroma_qp_offset=-2 / threads=6 / nr=0 / decimate=1 / mbaff=0 / bframes=3 / b_pyramid=1 / b_adapt=1 / b_bias=0 / direct=1 / wpredb=1 / keyint=240 / keyint_min=24 / scenecut=40 / rc=2pass / bitrate=3100 / ratetol=1.0 / qcomp=0.60 / qpmin=10 / qpmax=51 / qpstep=4 / cplxblur=20.0 / qblur=0.5 / ip_ratio=1.40 / pb_ratio=1.30 / aq=1:1.00
Language                         : English

Audio
ID                               : 1
Format                           : AC-3
Format/Info                      : Audio Coding 3
Mode extension                   : CM (complete main)
Codec ID                         : A_AC3
Duration                         : 44mn 51s
Bit rate mode                    : Constant
Bit rate                         : 384 Kbps
Channel(s)                       : 2 channels
Channel positions                : Front: L R
Sampling rate                    : 48.0 KHz
Bit depth                        : 16 bits
Compression mode                 : Lossy
Stream size                      : 123 MiB (11%)

General
Unique ID                        : 230522904121833432909485898201834838112 (0xAD6D18AD1D990C19B48E57A0AA71D860)
Complete name                    : History.Channel.WWII.In.HD.Part06.Point.Of.No.Return.720p.HDTV.x264-DHD.mkv
Format                           : Matroska
File size                        : 1.09 GiB
Duration                         : 44mn 52s
Overall bit rate                 : 3 486 Kbps
Encoded date                     : UTC 2009-11-18 10:27:30
Writing application              : mkvmerge v2.3.0 ('Freak U') built on Sep  8 2008 18:32:16
Writing library                  : libebml v0.7.7 + libmatroska v0.8.1

Video
ID                               : 2
Format                           : AVC
Format/Info                      : Advanced Video Codec
Format profile                   : High@L3.1
Format settings, CABAC           : Yes
Format settings, ReFrames        : 5 frames
Codec ID                         : V_MPEG4/ISO/AVC
Duration                         : 44mn 52s
Bit rate                         : 3 099 Kbps
Width                            : 1 280 pixels
Height                           : 720 pixels
Display aspect ratio             : 16:9
Frame rate                       : 23.976 fps
Color space                      : YUV
Chroma subsampling               : 4:2:0
Bit depth                        : 8 bits
Scan type                        : Progressive
Bits/(Pixel*Frame)               : 0.140
Stream size                      : 973 MiB (87%)
Writing library                  : x264 core 68 r1184tw
Encoding settings                : cabac=1 / ref=5 / deblock=1:0:0 / analyse=0x3:0x113 / me=umh / subme=8 / psy_rd=1.0:0.0 / mixed_ref=1 / me_range=16 / chroma_me=1 / trellis=1 / 8x8dct=1 / cqm=0 / deadzone=21,11 / chroma_qp_offset=-2 / threads=6 / nr=0 / decimate=1 / mbaff=0 / bframes=3 / b_pyramid=1 / b_adapt=1 / b_bias=0 / direct=1 / wpredb=1 / keyint=240 / keyint_min=24 / scenecut=40 / rc=2pass / bitrate=3099 / ratetol=1.0 / qcomp=0.60 / qpmin=10 / qpmax=51 / qpstep=4 / cplxblur=20.0 / qblur=0.5 / ip_ratio=1.40 / pb_ratio=1.30 / aq=1:1.00
Language                         : English

Audio
ID                               : 1
Format                           : AC-3
Format/Info                      : Audio Coding 3
Mode extension                   : CM (complete main)
Codec ID                         : A_AC3
Duration                         : 44mn 52s
Bit rate mode                    : Constant
Bit rate                         : 384 Kbps
Channel(s)                       : 2 channels
Channel positions                : Front: L R
Sampling rate                    : 48.0 KHz
Bit depth                        : 16 bits
Compression mode                 : Lossy
Stream size                      : 123 MiB (11%)

General
Unique ID                        : 200500552993250563928599324593147683100 (0x96D7007BB481C9B88A0151634E19211C)
Complete name                    : History.Channel.WWII.In.HD.Part07.Striking.Distance.720p.HDTV.x264-DHD.mkv
Format                           : Matroska
File size                        : 1.09 GiB
Duration                         : 43mn 56s
Overall bit rate                 : 3 560 Kbps
Encoded date                     : UTC 2009-11-20 06:06:07
Writing application              : mkvmerge v2.3.0 ('Freak U') built on Sep  8 2008 18:32:16
Writing library                  : libebml v0.7.7 + libmatroska v0.8.1

Video
ID                               : 2
Format                           : AVC
Format/Info                      : Advanced Video Codec
Format profile                   : High@L3.1
Format settings, CABAC           : Yes
Format settings, ReFrames        : 5 frames
Codec ID                         : V_MPEG4/ISO/AVC
Duration                         : 43mn 56s
Bit rate                         : 3 173 Kbps
Width                            : 1 280 pixels
Height                           : 720 pixels
Display aspect ratio             : 16:9
Frame rate                       : 23.976 fps
Color space                      : YUV
Chroma subsampling               : 4:2:0
Bit depth                        : 8 bits
Scan type                        : Progressive
Bits/(Pixel*Frame)               : 0.144
Stream size                      : 976 MiB (87%)
Writing library                  : x264 core 68 r1184tw
Encoding settings                : cabac=1 / ref=5 / deblock=1:0:0 / analyse=0x3:0x113 / me=umh / subme=8 / psy_rd=1.0:0.0 / mixed_ref=1 / me_range=16 / chroma_me=1 / trellis=1 / 8x8dct=1 / cqm=0 / deadzone=21,11 / chroma_qp_offset=-2 / threads=6 / nr=0 / decimate=1 / mbaff=0 / bframes=3 / b_pyramid=1 / b_adapt=1 / b_bias=0 / direct=1 / wpredb=1 / keyint=240 / keyint_min=24 / scenecut=40 / rc=2pass / bitrate=3173 / ratetol=1.0 / qcomp=0.60 / qpmin=10 / qpmax=51 / qpstep=4 / cplxblur=20.0 / qblur=0.5 / ip_ratio=1.40 / pb_ratio=1.30 / aq=1:1.00
Language                         : English

Audio
ID                               : 1
Format                           : AC-3
Format/Info                      : Audio Coding 3
Mode extension                   : CM (complete main)
Codec ID                         : A_AC3
Duration                         : 43mn 56s
Bit rate mode                    : Constant
Bit rate                         : 384 Kbps
Channel(s)                       : 2 channels
Channel positions                : Front: L R
Sampling rate                    : 48.0 KHz
Bit depth                        : 16 bits
Compression mode                 : Lossy
Stream size                      : 121 MiB (11%)

General
Unique ID                        : 175590245511934455383726282769655400704 (0x841973805C427618A8A25A8296C80900)
Complete name                    : History.Channel.WWII.In.HD.Part08.Glory.and.Guts.720p.HDTV.x264-DHD.mkv
Format                           : Matroska
File size                        : 1.09 GiB
Duration                         : 44mn 2s
Overall bit rate                 : 3 553 Kbps
Encoded date                     : UTC 2009-11-20 18:34:36
Writing application              : mkvmerge v2.3.0 ('Freak U') built on Sep  8 2008 18:32:16
Writing library                  : libebml v0.7.7 + libmatroska v0.8.1

Video
ID                               : 2
Format                           : AVC
Format/Info                      : Advanced Video Codec
Format profile                   : High@L3.1
Format settings, CABAC           : Yes
Format settings, ReFrames        : 5 frames
Codec ID                         : V_MPEG4/ISO/AVC
Duration                         : 44mn 2s
Bit rate                         : 3 166 Kbps
Width                            : 1 280 pixels
Height                           : 720 pixels
Display aspect ratio             : 16:9
Frame rate                       : 23.976 fps
Color space                      : YUV
Chroma subsampling               : 4:2:0
Bit depth                        : 8 bits
Scan type                        : Progressive
Bits/(Pixel*Frame)               : 0.143
Stream size                      : 976 MiB (87%)
Writing library                  : x264 core 68 r1184tw
Encoding settings                : cabac=1 / ref=5 / deblock=1:0:0 / analyse=0x3:0x113 / me=umh / subme=8 / psy_rd=1.0:0.0 / mixed_ref=1 / me_range=16 / chroma_me=1 / trellis=1 / 8x8dct=1 / cqm=0 / deadzone=21,11 / chroma_qp_offset=-2 / threads=6 / nr=0 / decimate=1 / mbaff=0 / bframes=3 / b_pyramid=1 / b_adapt=1 / b_bias=0 / direct=1 / wpredb=1 / keyint=240 / keyint_min=24 / scenecut=40 / rc=2pass / bitrate=3166 / ratetol=1.0 / qcomp=0.60 / qpmin=10 / qpmax=51 / qpstep=4 / cplxblur=20.0 / qblur=0.5 / ip_ratio=1.40 / pb_ratio=1.30 / aq=1:1.00
Language                         : English

Audio
ID                               : 1
Format                           : AC-3
Format/Info                      : Audio Coding 3
Mode extension                   : CM (complete main)
Codec ID                         : A_AC3
Duration                         : 44mn 2s
Bit rate mode                    : Constant
Bit rate                         : 384 Kbps
Channel(s)                       : 2 channels
Channel positions                : Front: L R
Sampling rate                    : 48.0 KHz
Bit depth                        : 16 bits
Compression mode                 : Lossy
Stream size                      : 121 MiB (11%)

General
Unique ID                        : 237284749064169901017933689577875207501 (0xB283615F120784E0AEF68C6E9380754D)
Complete name                    : History.Channel.WWII.In.HD.Part09.Edge.of.The.Abyss.720p.HDTV.x264-DHD.mkv
Format                           : Matroska
File size                        : 1.09 GiB
Duration                         : 43mn 58s
Overall bit rate                 : 3 557 Kbps
Encoded date                     : UTC 2009-11-20 18:32:22
Writing application              : mkvmerge v2.3.0 ('Freak U') built on Sep  8 2008 18:32:16
Writing library                  : libebml v0.7.7 + libmatroska v0.8.1

Video
ID                               : 2
Format                           : AVC
Format/Info                      : Advanced Video Codec
Format profile                   : High@L3.1
Format settings, CABAC           : Yes
Format settings, ReFrames        : 5 frames
Codec ID                         : V_MPEG4/ISO/AVC
Duration                         : 43mn 58s
Bit rate                         : 3 170 Kbps
Width                            : 1 280 pixels
Height                           : 720 pixels
Display aspect ratio             : 16:9
Frame rate                       : 23.976 fps
Color space                      : YUV
Chroma subsampling               : 4:2:0
Bit depth                        : 8 bits
Scan type                        : Progressive
Bits/(Pixel*Frame)               : 0.143
Stream size                      : 976 MiB (87%)
Writing library                  : x264 core 68 r1184tw
Encoding settings                : cabac=1 / ref=5 / deblock=1:0:0 / analyse=0x3:0x113 / me=umh / subme=8 / psy_rd=1.0:0.0 / mixed_ref=1 / me_range=16 / chroma_me=1 / trellis=1 / 8x8dct=1 / cqm=0 / deadzone=21,11 / chroma_qp_offset=-2 / threads=6 / nr=0 / decimate=1 / mbaff=0 / bframes=3 / b_pyramid=1 / b_adapt=1 / b_bias=0 / direct=1 / wpredb=1 / keyint=240 / keyint_min=24 / scenecut=40 / rc=2pass / bitrate=3170 / ratetol=1.0 / qcomp=0.60 / qpmin=10 / qpmax=51 / qpstep=4 / cplxblur=20.0 / qblur=0.5 / ip_ratio=1.40 / pb_ratio=1.30 / aq=1:1.00
Language                         : English

Audio
ID                               : 1
Format                           : AC-3
Format/Info                      : Audio Coding 3
Mode extension                   : CM (complete main)
Codec ID                         : A_AC3
Duration                         : 43mn 58s
Bit rate mode                    : Constant
Bit rate                         : 384 Kbps
Channel(s)                       : 2 channels
Channel positions                : Front: L R
Sampling rate                    : 48.0 KHz
Bit depth                        : 16 bits
Compression mode                 : Lossy
Stream size                      : 121 MiB (11%)

General
Unique ID                        : 232848655741570328375683421462964988285 (0xAF2D0515908D35708B3832404E63E97D)
Complete name                    : History.Channel.WWII.In.HD.Part10.End.Game.720p.HDTV.x264-DHD.mkv
Format                           : Matroska
File size                        : 1.09 GiB
Duration                         : 44mn 16s
Overall bit rate                 : 3 534 Kbps
Encoded date                     : UTC 2009-11-21 06:28:39
Writing application              : mkvmerge v2.3.0 ('Freak U') built on Sep  8 2008 18:32:16
Writing library                  : libebml v0.7.7 + libmatroska v0.8.1

Video
ID                               : 2
Format                           : AVC
Format/Info                      : Advanced Video Codec
Format profile                   : High@L3.1
Format settings, CABAC           : Yes
Format settings, ReFrames        : 5 frames
Format settings, GOP             : M=4, N=8
Codec ID                         : V_MPEG4/ISO/AVC
Duration                         : 44mn 15s
Bit rate                         : 3 147 Kbps
Width                            : 1 280 pixels
Height                           : 720 pixels
Display aspect ratio             : 16:9
Frame rate                       : 23.976 fps
Color space                      : YUV
Chroma subsampling               : 4:2:0
Bit depth                        : 8 bits
Scan type                        : Progressive
Bits/(Pixel*Frame)               : 0.142
Stream size                      : 975 MiB (87%)
Writing library                  : x264 core 68 r1184tw
Encoding settings                : cabac=1 / ref=5 / deblock=1:0:0 / analyse=0x3:0x113 / me=umh / subme=8 / psy_rd=1.0:0.0 / mixed_ref=1 / me_range=16 / chroma_me=1 / trellis=1 / 8x8dct=1 / cqm=0 / deadzone=21,11 / chroma_qp_offset=-2 / threads=6 / nr=0 / decimate=1 / mbaff=0 / bframes=3 / b_pyramid=1 / b_adapt=1 / b_bias=0 / direct=1 / wpredb=1 / keyint=240 / keyint_min=24 / scenecut=40 / rc=2pass / bitrate=3147 / ratetol=1.0 / qcomp=0.60 / qpmin=10 / qpmax=51 / qpstep=4 / cplxblur=20.0 / qblur=0.5 / ip_ratio=1.40 / pb_ratio=1.30 / aq=1:1.00
Language                         : English

Audio
ID                               : 1
Format                           : AC-3
Format/Info                      : Audio Coding 3
Mode extension                   : CM (complete main)
Codec ID                         : A_AC3
Duration                         : 44mn 16s
Bit rate mode                    : Constant
Bit rate                         : 384 Kbps
Channel(s)                       : 2 channels
Channel positions                : Front: L R
Sampling rate                    : 48.0 KHz
Bit depth                        : 16 bits
Compression mode                 : Lossy
Stream size                      : 122 MiB (11%)

SCREENS
ImageImageImageImageImage
ImageImageImageImageImage
ImageImageImageImageImage


ed2k LINKS
History.Channel.WWII.In.HD.Part01-02.Darkness.Falls-Hard.Way.Back.720p.HDTV.x264-DHD.mkv  [2.19 Gb]
History.Channel.WWII.In.HD.Part03.Bloody.Resolve.720p.HDTV.x264-DHD.mkv  [1.09 Gb]
History.Channel.WWII.In.HD.Part04.Battle.Stations.720p.HDTV.x264-DHD.mkv  [1.09 Gb]
History.Channel.WWII.In.HD.Part05.Day.of.Days.720p.HDTV.x264-DHD.mkv  [1.09 Gb]
History.Channel.WWII.In.HD.Part06.Point.Of.No.Return.720p.HDTV.x264-DHD.mkv  [1.09 Gb]
History.Channel.WWII.In.HD.Part07.Striking.Distance.720p.HDTV.x264-DHD.mkv  [1.09 Gb]
History.Channel.WWII.In.HD.Part08.Glory.and.Guts.720p.HDTV.x264-DHD.mkv  [1.09 Gb]
History.Channel.WWII.In.HD.Part09.Edge.of.The.Abyss.720p.HDTV.x264-DHD.mkv  [1.09 Gb]
History.Channel.WWII.In.HD.Part10.End.Game.720p.HDTV.x264-DHD.mkv  [1.09 Gb]

[ Add all 9 links to your ed2k client ]

the_seba
Registered user
Registered user
Posts: 589
Joined: Fri Jan 09, 2009 5:28 pm
Been thanked: 3 times

Re: History Channel - WWII in HD (2009)

Post by the_seba » Thu Feb 17, 2011 2:59 am

WARNING: This documentary contains gruesome shots of dead people. Censor it for your kids the way you feel appropriate.

Post Reply

Return to “Educational”