Arctic Exposure with Nigel Marven (2007)

For educational and documentary series, from History Channel, National Geographic, etc.
Post Reply
emoneypitt
Donator
Donator
Posts: 551
Joined: Sat Jun 16, 2007 11:11 am
Location: USA
Been thanked: 1 time

Arctic Exposure with Nigel Marven (2007)

Post by emoneypitt » Thu Feb 03, 2011 7:12 pm

Arctic Exposure with Nigel Marven

Image

Nigel Marven examines wildlife in the Canadian Arctic over a nine-month period.

Code: Select all

Complete name : Arctic.Exposure.with.Nigel.Marven.Part1.New.Life.of.Spring.720p.HDTV.h264-MVGroup.org.mkv 
Format : Matroska 
File size : 1.30 GiB 
Duration : 42mn 30s 
Overall bit rate : 4 383 Kbps 
Encoded date : UTC 2009-01-19 03:40:51 
Writing application : mkvmerge v2.4.1 ('Use Me') built on Dec 5 2008 18:30:05 
Writing library : libebml v0.7.7 + libmatroska v0.8.1 

Video 
ID : 1 
Format : AVC 
Format/Info : Advanced Video Codec 
Format profile : High@L4.1 
Format settings, CABAC : Yes 
Format settings, ReFrames : 8 frames 
Codec ID : V_MPEG4/ISO/AVC 
Duration : 42mn 30s 
Bit rate : 4 000 Kbps 
Width : 1 280 pixels 
Height : 720 pixels 
Display aspect ratio : 16:9 
Frame rate : 29.970 fps 
Color space : YUV 
Chroma subsampling : 4:2:0 
Bit depth : 8 bits 
Scan type : Progressive 
Bits/(Pixel*Frame) : 0.145 
Stream size : 1.16 GiB (89%) 
Writing library : x264 core 65 r1069M ed32ad2 
Encoding settings : cabac=1 / ref=8 / deblock=1:-3:-3 / analyse=0x3:0x113 / me=umh / subme=7 / psy_rd=1.0:0.0 / mixed_ref=1 / me_range=30 / chroma_me=1 / trellis=1 / 8x8dct=1 / cqm=2 / deadzone=21,11 / chroma_qp_offset=-2 / threads=6 / nr=0 / decimate=1 / mbaff=0 / bframes=5 / b_pyramid=1 / b_adapt=2 / b_bias=0 / direct=1 / wpredb=1 / keyint=250 / keyint_min=25 / scenecut=40(pre) / rc=2pass / bitrate=4000 / ratetol=7.0 / qcomp=0.60 / qpmin=10 / qpmax=51 / qpstep=4 / cplxblur=20.0 / qblur=0.5 / ip_ratio=1.40 / pb_ratio=1.30 / aq=1:1.05 
Language : English 

Audio 
ID : 2 
Format : AC-3 
Format/Info : Audio Coding 3 
Mode extension : CM (complete main) 
Codec ID : A_AC3 
Duration : 42mn 30s 
Bit rate mode : Constant 
Bit rate : 384 Kbps 
Channel(s) : 2 channels 
Channel positions : Front: L R 
Sampling rate : 48.0 KHz 
Bit depth : 16 bits 
Stream size : 117 MiB (9%) 
ImageImageImageImageImage
ImageImageImageImageImage

Arctic.Exposure.with.Nigel.Marven.Part1.New.Life.of.Spring.720p.HDTV.h264-MVGroup.org.mkv  [1.30 Gb]
Arctic.Exposure.with.Nigel.Marven.Part2.The.Thaw.Begins.720p.HDTV.h264-MVGroup.org.mkv  [1.30 Gb]
Arctic.Exposure.with.Nigel.Marven.Part3.High.Summer.720p.HDTV.h264-MVGroup.org.mkv  [1.30 Gb]
Arctic.Exposure.with.Nigel.Marven.Part4.Return.of.the.Ice.720p.HDTV.h264-MVGroup.org.mkv  [1.30 Gb]
Arctic.Exposure.with.Nigel.Marven.Part5.The.Journey.Ends.720p.HDTV.h264-MVGroup.org.mkv  [1.30 Gb]

[ Add all 5 links to your ed2k client ]

Post Reply

Return to “Educational”