PBS - Yellowstone: Land To Life (2009)

For educational and documentary series, from History Channel, National Geographic, etc.
Post Reply
the_seba
Registered user
Registered user
Posts: 589
Joined: Fri Jan 09, 2009 5:28 pm
Been thanked: 3 times

PBS - Yellowstone: Land To Life (2009)

Post by the_seba » Thu Jan 06, 2011 1:25 am

Yellowstone: Land To Life (2009)

Image

INFO
PBS.com

People come to Yellowstone to visit the unusual thermal features and to view wildlife, often not realizing they are standing on one of the world's largest active volcanoes.
In Yellowstone: Land to Life, environmental filmmaker John Grabowska (Ribbon of Sand, Crown of the Continent) presents a lyrical interpretation of the sweeping geologic story of Yellowstone — from glaciation, to mountain building, to formation of a supervolcano's gigantic caldera.


TECHNICAL SPECS

Code: Select all

General
Complete name                    : Yellowstone.Land.to.Life.HDTV.XviD-QCF.avi
Format                           : AVI
Format/Info                      : Audio Video Interleave
File size                        : 234 MiB
Duration                         : 26mn 21s
Overall bit rate                 : 1 242 Kbps
Writing application              : VirtualDubMod 1.5.10.2 (build 2540/release)
Writing library                  : VirtualDubMod build 2540/release

Video
ID                               : 0
Format                           : MPEG-4 Visual
Format profile                   : Advanced Simple@L5
Format settings, BVOP            : Yes
Format settings, QPel            : No
Format settings, GMC             : No warppoints
Format settings, Matrix          : Default (H.263)
Codec ID                         : XviD
Codec ID/Hint                    : XviD
Duration                         : 26mn 21s
Bit rate                         : 1 099 Kbps
Width                            : 624 pixels
Height                           : 352 pixels
Display aspect ratio             : 16:9
Frame rate                       : 29.970 fps
Color space                      : YUV
Chroma subsampling               : 4:2:0
Bit depth                        : 8 bits
Scan type                        : Progressive
Compression mode                 : Lossy
Bits/(Pixel*Frame)               : 0.167
Stream size                      : 207 MiB (88%)
Writing library                  : XviD 1.2.1 (UTC 2008-12-04)

Audio
ID                               : 1
Format                           : MPEG Audio
Format version                   : Version 1
Format profile                   : Layer 3
Mode                             : Joint stereo
Mode extension                   : MS Stereo
Codec ID                         : 55
Codec ID/Hint                    : MP3
Duration                         : 26mn 21s
Bit rate mode                    : Variable
Bit rate                         : 135 Kbps
Channel(s)                       : 2 channels
Sampling rate                    : 48.0 KHz
Compression mode                 : Lossy
Stream size                      : 24.5 MiB (10%)
Alignment                        : Aligned on interleaves
Interleave, duration             : 24 ms (0.72 video frame)
Interleave, preload duration     : 526 ms
Writing library                  : LAME3.98r
Encoding settings                : -m j -V 4 -q 3 -lowpass 17 --abr 135

SCREENS
ImageImageImageImageImage

ed2k LINK
Yellowstone.Land.To.Life.2009.HDTV.XviD-QCF.avi  [234.27 Mb]

Dany Bhoy
Donator
Donator
Posts: 85
Joined: Mon Feb 27, 2006 6:20 am

Re: PBS - Yellowstone: Land To Life (2009)

Post by Dany Bhoy » Fri Jan 07, 2011 3:06 pm

Thanks Mate!

Post Reply

Return to “Educational”