Pompeii - Life and Death in a Roman Town (2010)

For educational and documentary series, from History Channel, National Geographic, etc.
Post Reply
emoneypitt
Donator
Donator
Posts: 526
Joined: Sat Jun 16, 2007 11:11 am
Location: USA
Been thanked: 1 time

Pompeii - Life and Death in a Roman Town (2010)

Post by emoneypitt » Mon Dec 20, 2010 9:25 am

Pompeii - Life and Death in a Roman Town
Pompeii: one of the most famous volcanic eruptions in history. We know how its victims died, but this film sets out to answer another question - how did they live? Gleaning evidence from an extraordinary find, Cambridge professor and Pompeii expert Mary Beard provides new insight into the lives of the people who lived in the shadow of Mount Vesuvius before its cataclysmic eruption.

In a dark cellar in Oplontis, just three miles from the centre of Pompeii, 54 skeletons who didn't succumb to the torrent of volcanic ash are about to be put under the microscope. The remains will be submitted to a barrage of tests that will unlock one of the most comprehensive scientific snapshots of Pompeian life ever produced - and there are some big surprises in store.

Using the latest forensic techniques it is now possible to determine what those who perished in the disaster ate and drank, where they came from, what diseases they suffered, how rich they were, and perhaps, even more astonishingly, the details of their sex lives.

The way the remains were found in the cellar already provides an invaluable clue about the lives of the people they belonged to. On one side of the room were individuals buried with one of the most stunning hauls of gold, jewellery and coins ever found in Pompeii. On the other, were people buried with nothing. It looked the stark dividing line of a polarised ancient society: a room partitioned between super rich and abject poor. But on closer examination the skeletons reveal some surprises about life in Pompeii.
http://www.bbc.co.uk/programmes/b00wqfcx

Code: Select all

Complete name : Pompeii.Life.And.Death.In.A.Roman.Town.WS.PDTV.XviD-CiA.avi 
Format : AVI 
Format/Info : Audio Video Interleave 
File size : 500 MiB 
Duration : 59mn 0s 
Overall bit rate : 1 185 Kbps 
Writing application : VirtualDubMod 1.5.10.2 (build 2540/release) 
Writing library : VirtualDubMod build 2540/release 

Video 
ID : 0 
Format : MPEG-4 Visual 
Format profile : Advanced Simple@L5 
Format settings, BVOP : Yes 
Format settings, QPel : No 
Format settings, GMC : No warppoints 
Format settings, Matrix : Default (H.263) 
Muxing mode : Packed bitstream 
Codec ID : XviD 
Codec ID/Hint : XviD 
Duration : 59mn 0s 
Bit rate : 1 047 Kbps 
Width : 624 pixels 
Height : 352 pixels 
Display aspect ratio : 16:9 
Frame rate : 25.000 fps 
Color space : YUV 
Chroma subsampling : 4:2:0 
Bit depth : 8 bits 
Scan type : Progressive 
Bits/(Pixel*Frame) : 0.191 
Stream size : 442 MiB (88%) 
Writing library : XviD 1.2.1 (UTC 2008-12-04) 

Audio 
ID : 1 
Format : MPEG Audio 
Format version : Version 1 
Format profile : Layer 3 
Mode : Joint stereo 
Mode extension : MS Stereo 
Codec ID : 55 
Codec ID/Hint : MP3 
Duration : 59mn 0s 
Bit rate mode : Constant 
Bit rate : 128 Kbps 
Channel(s) : 2 channels 
Sampling rate : 48.0 KHz 
Stream size : 54.0 MiB (11%) 
Alignment : Aligned on interleaves 
Interleave, duration : 40 ms (1.00 video frame) 
Interleave, preload duration : 504 ms 
Image Image ImageImage Image

Pompeii.Life.And.Death.In.A.Roman.Town.WS.PDTV.XviD-CiA.avi  [499.97 Mb]

Post Reply

Return to “Educational”