The Search for Life - The Drake Equation (2010)

For educational and documentary series, from History Channel, National Geographic, etc.
Post Reply
emoneypitt
Donator
Donator
Posts: 526
Joined: Sat Jun 16, 2007 11:11 am
Location: USA
Been thanked: 1 time

The Search for Life - The Drake Equation (2010)

Post by emoneypitt » Mon Dec 20, 2010 9:11 am

The Search for Life - The Drake Equation
For many years our place in the universe was the subject of theologians and philosophers, not scientists, but in 1960 one man changed all that.

Dr Frank Drake was one of the leading lights in the new science of radio astronomy when he did something that was not only revolutionary, but could have cost him his career. Working at the National Radio Astronomy Observatory in Greenback in Virginia, he pointed one of their new 25-metre radio telescopes at a star called Tau Ceti twelve light years from earth, hoping for signs of extra-terrestrial intelligence.

Although project Ozma resulted in silence, it did result in one of the most seminal equations in the history of science - the Drake Equation - which examined seven key elements necessary for ET intelligence to exist, from the formation of stars to the likely length a given intelligent civilisation may survive. When Frank and his colleagues entered the figures, the equation suggested there were a staggering 50,000 civilisations capable of communicating across the galaxy.

However, in the 50 years of listening that has followed, not one single bleep has been heard from ET. So were Drake and his followers wrong and is there no life form out there capable of communicating? Drake's own calculations suggest that we would have to scan the entire radio spectrum of ten million stars to be sure of contact.
http://www.bbc.co.uk/iplayer/episode/b0 ... _Equation/

Code: Select all

Complete name : The.Search.for.Life.The.Drake.Equation.WS.PDTV.XviD.avi 
Format : AVI 
Format/Info : Audio Video Interleave 
File size : 480 MiB 
Duration : 59mn 7s 
Overall bit rate : 1 135 Kbps 
Writing application : VirtualDubMod 1.5.10.2 (build 2540/release) 
Writing library : VirtualDubMod build 2540/release 

Video 
ID : 0 
Format : MPEG-4 Visual 
Format profile : Advanced Simple@L5 
Format settings, BVOP : Yes 
Format settings, QPel : No 
Format settings, GMC : No warppoints 
Format settings, Matrix : Default (H.263) 
Muxing mode : Packed bitstream 
Codec ID : XviD 
Codec ID/Hint : XviD 
Duration : 59mn 7s 
Bit rate : 992 Kbps 
Width : 624 pixels 
Height : 352 pixels 
Display aspect ratio : 16:9 
Frame rate : 25.000 fps 
Color space : YUV 
Chroma subsampling : 4:2:0 
Bit depth : 8 bits 
Scan type : Progressive 
Bits/(Pixel*Frame) : 0.181 
Stream size : 419 MiB (87%) 
Writing library : XviD 1.2.1 (UTC 2008-12-04) 

Audio 
ID : 1 
Format : MPEG Audio 
Format version : Version 1 
Format profile : Layer 3 
Mode : Joint stereo 
Mode extension : MS Stereo 
Codec ID : 55 
Codec ID/Hint : MP3 
Duration : 59mn 7s 
Bit rate mode : Variable 
Bit rate : 128 Kbps 
Channel(s) : 2 channels 
Sampling rate : 48.0 KHz 
Stream size : 55.3 MiB (12%) 
Alignment : Aligned on interleaves 
Interleave, duration : 24 ms (0.60 video frame) 
Interleave, preload duration : 496 ms 
Writing library : LAME3.90. 
Encoding settings : -m j -V 4 -q 2 -lowpass 17.6 --abr 128 
Image Image ImageImage Image

The.Search.for.Life.The.Drake.Equation.WS.PDTV.XviD.avi  [480.13 Mb]

dannalboon
Registered user
Registered user
Posts: 177
Joined: Mon May 21, 2007 11:27 pm
Has thanked: 19 times

Re: The Search for Life - The Drake Equation (2010)

Post by dannalboon » Mon Dec 20, 2010 9:22 pm

Cheers e$ :D

voetsak
Donator
Donator
Posts: 766
Joined: Mon Sep 04, 2006 4:32 am
Has thanked: 185 times

Re: The Search for Life - The Drake Equation (2010)

Post by voetsak » Tue Dec 28, 2010 1:55 am

thank you :)

Post Reply

Return to “Educational”