Discovery Channel - Tyrannosaurus Sex (2010)

For educational and documentary series, from History Channel, National Geographic, etc.
Post Reply
emoneypitt
Donator
Donator
Posts: 551
Joined: Sat Jun 16, 2007 11:11 am
Location: USA
Been thanked: 1 time

Discovery Channel - Tyrannosaurus Sex (2010)

Post by emoneypitt » Mon Dec 20, 2010 8:55 am

Discovery Channel - Tyrannosaurus Sex
Birds do it, bees do it, and now with the magic of CGI, we can watch dinosaurs do it. The one-hour special explores the mysteries, wonders and newest evidence surrounding ritual courtship and mating habits of dinosaurs. How did a ferocious T-Rex woo his lady? How did a female Titanosaur support the weight of a male who was as long as a four-story building is high? How did a Stegosaurus couple negotiate sex with all those deadly plates and spikes?

“It is something they never showed us in the Jurassic Park films, that much I can tell you,” said Director and Locomotive President Gabriel Gornell. “Throughout the production process the support we received from the team over at the Discovery Channel has been unbelievable. We could never have pulled this off without them. “

Tyrannosaurus Sex doesn’t just answer the questions, it shows dinosaur sex in all its glory with state-of-the-art CGI animation. The scenes created for the special are all based on fact. Interviews with scientists on the cutting-edge of palaeontology bring new life to one of the last mysteries of these mighty giants.
http://tvbythenumbers.zap2it.com/2010/0 ... -10p/41494

Code: Select all

Complete name : Discovery.Channel.Tyrannosaurus.Sex.HDTV.XviD-ViLD.avi 
Format : AVI 
Format/Info : Audio Video Interleave 
File size : 350 MiB 
Duration : 43mn 53s 
Overall bit rate : 1 115 Kbps 
Writing application : VirtualDubMod 1.5.10.2 (build 2540/release) 
Writing library : VirtualDubMod build 2540/release 

Video 
ID : 0 
Format : MPEG-4 Visual 
Format profile : Advanced Simple@L5 
Format settings, BVOP : Yes 
Format settings, QPel : No 
Format settings, GMC : No warppoints 
Format settings, Matrix : Default (MPEG) 
Codec ID : XviD 
Codec ID/Hint : XviD 
Duration : 43mn 53s 
Bit rate : 979 Kbps 
Width : 624 pixels 
Height : 352 pixels 
Display aspect ratio : 16:9 
Frame rate : 25.000 fps 
Color space : YUV 
Chroma subsampling : 4:2:0 
Bit depth : 8 bits 
Scan type : Progressive 
Bits/(Pixel*Frame) : 0.178 
Stream size : 307 MiB (88%) 
Writing library : XviD 1.2.1 (UTC 2008-12-04) 

Audio 
ID : 1 
Format : MPEG Audio 
Format version : Version 1 
Format profile : Layer 3 
Mode : Joint stereo 
Codec ID : 55 
Codec ID/Hint : MP3 
Duration : 43mn 53s 
Bit rate mode : Variable 
Bit rate : 128 Kbps 
Channel(s) : 2 channels 
Sampling rate : 48.0 KHz 
Stream size : 38.6 MiB (11%) 
Alignment : Aligned on interleaves 
Interleave, duration : 24 ms (0.60 video frame) 
Interleave, preload duration : 565 ms 
Writing library : LAME3.98r 
Encoding settings : -m j -V 4 -q 2 -lowpass 17 --abr 128 
Image Image ImageImage Image

Discovery.Channel.Tyrannosaurus.Sex.2010.HDTV.XviD-ViLD.avi  [349.99 Mb]

voetsak
Donator
Donator
Posts: 781
Joined: Mon Sep 04, 2006 4:32 am
Has thanked: 188 times

Re: Discovery Channel - Tyrannosaurus Sex (2010)

Post by voetsak » Tue Dec 28, 2010 1:56 am

thank you :)

Post Reply

Return to “Educational”