BBC - Decade of Discovery (2010)

For educational and documentary series, from History Channel, National Geographic, etc.
Post Reply
emoneypitt
Donator
Donator
Posts: 551
Joined: Sat Jun 16, 2007 11:11 am
Location: USA
Been thanked: 1 time

BBC - Decade of Discovery (2010)

Post by emoneypitt » Mon Dec 20, 2010 7:38 am

Decade of Discovery
A rare pygmy sloth that looks like a teddy bear and can swim, an insect as long as your arm and a fish from the deep with a face like a headlight. Just some of the extraordinary and weird new species chosen by presenter Chris Packham as his top ten discoveries of the last decade from around the world. Also chosen are a giant orchid worth thousands, a walking shark and two geckos which are evolving before our eyes. Equally extraordinary are the personal stories of how the new species were found, as told by the scientists and explorers who discovered them.
http://www.bbc.co.uk/programmes/b00wqfhd

Code: Select all

Complete name : Decade.Of.Discovery.2010.WS.PDTV.XviD-FTP.avi 
Format : AVI 
Format/Info : Audio Video Interleave 
File size : 550 MiB 
Duration : 58mn 23s 
Overall bit rate : 1 317 Kbps 
Writing application : VirtualDubMod 1.5.10.2 (build 2540/release) 
Writing library : VirtualDubMod build 2540/release 

Video 
ID : 0 
Format : MPEG-4 Visual 
Format profile : Advanced Simple@L5 
Format settings, BVOP : Yes 
Format settings, QPel : No 
Format settings, GMC : No warppoints 
Format settings, Matrix : Default (H.263) 
Muxing mode : Packed bitstream 
Codec ID : XviD 
Codec ID/Hint : XviD 
Duration : 58mn 23s 
Bit rate : 1 165 Kbps 
Width : 624 pixels 
Height : 352 pixels 
Display aspect ratio : 16:9 
Frame rate : 25.000 fps 
Color space : YUV 
Chroma subsampling : 4:2:0 
Bit depth : 8 bits 
Scan type : Progressive 
Bits/(Pixel*Frame) : 0.212 
Stream size : 487 MiB (88%) 
Writing library : XviD 1.2.1 (UTC 2008-12-04) 

Audio 
ID : 1 
Format : MPEG Audio 
Format version : Version 1 
Format profile : Layer 3 
Mode : Joint stereo 
Mode extension : MS Stereo 
Codec ID : 55 
Codec ID/Hint : MP3 
Duration : 58mn 22s 
Bit rate mode : Variable 
Bit rate : 139 Kbps 
Minimum bit rate : 32.0 Kbps 
Channel(s) : 2 channels 
Sampling rate : 48.0 KHz 
Stream size : 58.1 MiB (11%) 
Alignment : Aligned on interleaves 
Interleave, duration : 24 ms (0.60 video frame) 
Interleave, preload duration : 615 ms 
Writing library : LAME3.98r 
Encoding settings : -m j -V 5 -q 2 -lowpass 16.5 --vbr-new -b 32 
Image Image ImageImage Image

Decade.Of.Discovery.2010.WS.PDTV.XviD-FTP.avi  [550.16 Mb]

mathmasterBJK
Registered user
Registered user
Posts: 105
Joined: Mon Mar 05, 2007 11:05 pm

Re: Decade of Discovery (2010)

Post by mathmasterBJK » Thu Dec 23, 2010 11:06 pm

thanks...

voetsak
Donator
Donator
Posts: 781
Joined: Mon Sep 04, 2006 4:32 am
Has thanked: 188 times

Re: Decade of Discovery (2010)

Post by voetsak » Fri Dec 24, 2010 2:28 am

thank you :)

Post Reply

Return to “Educational”