National Geographic - Gold Town (2009)

For educational and documentary series, from History Channel, National Geographic, etc.
Post Reply
emoneypitt
Donator
Donator
Posts: 548
Joined: Sat Jun 16, 2007 11:11 am
Location: USA
Been thanked: 1 time

National Geographic - Gold Town (2009)

Post by emoneypitt » Thu Nov 04, 2010 8:00 am

National Geographic - Gold Town
At the far end of the Earth, under the harshest conditions imaginable - only mankinds most advanced technology will get the worlds most precious metal out of the ground...Each year, hundreds flock to Kalgoorlie, the legendary frontier town in the Australian outback, to make their fortune seeking gold. Men have been digging here for over a hundred years and have found over 50 million ounces of gold.
Further info, video clips and photos available here ---> http://channel.nationalgeographic.com/e ... 3/Overview

Code: Select all

Complete name : National.Geographic.Gold.Town.TVRip.H264-Phatwarez.avi 
Format : AVI 
Format/Info : Audio Video Interleave 
File size : 348 MiB 
Duration : 45mn 30s 
Overall bit rate : 1 070 Kbps 
Writing application : Lavf51.12.1 

Video 
ID : 0 
Format : AVC 
Format/Info : Advanced Video Codec 
Format profile : Baseline@L2.0 
Format settings, CABAC : No 
Format settings, ReFrames : 1 frame 
Codec ID : H264 
Duration : 45mn 30s 
Bit rate : 962 Kbps 
Width : 720 pixels 
Height : 480 pixels 
Display aspect ratio : 3:2 
Frame rate : 23.976 fps 
Standard : NTSC 
Resolution : 8 bits 
Colorimetry : 4:2:0 
Scan type : Progressive 
Bits/(Pixel*Frame) : 0.116 
Stream size : 313 MiB (90%) 

Audio 
ID : 1 
Format : MPEG Audio 
Format version : Version 1 
Format profile : Layer 3 
Mode : Joint stereo 
Format_Settings_ModeExtension : MS Stereo 
Codec ID : 55 
Codec ID/Hint : MP3 
Duration : 45mn 29s 
Bit rate mode : Constant 
Bit rate : 96.0 Kbps 
Channel(s) : 2 channels 
Sampling rate : 44.1 KHz 
Stream size : 31.2 MiB (9%) 
Alignment : Aligned on interleaves 
Interleave, duration : 26 ms (0.63 video frame) 
National.Geographic.Gold.Town.TVRip.H264-Phatwarez.avi  [348.22 Mb]

Post Reply

Return to “Educational”