National Geographic - World's Wildest Encounters (2008)

For educational and documentary series, from History Channel, National Geographic, etc.
Post Reply
emoneypitt
Donator
Donator
Posts: 526
Joined: Sat Jun 16, 2007 11:11 am
Location: USA
Been thanked: 1 time

National Geographic - World's Wildest Encounters (2008)

Post by emoneypitt » Thu Nov 04, 2010 7:39 am

National Geographic - World's Wildest Encounters
Adventurer and wildlife cameraman Andreas Kieling films the most inaccessible species on four continents.

Andreas Kieling has become justly famous for his films about bears. In World's Wildest Encounters he takes up a new challenge: to find and film the rarest, most endangered and elusive animals on earth. Always with the thrill of getting as close as he safely can, and with the goal of filming something never seen before. In every hour Andreas visits four or five locations and species across the globe, alone or with the best local experts. It’s a real test of tracking, survival, fieldcraft and filming skills, and Andreas passes on his secrets to us as he goes.
Further info, video clips and photos available here ---> http://natgeotv.com/uk/worlds-wildest-encounters

Code: Select all

Complete name : National.Geographic.Wild.Worlds.Wildest.Encounters.Part1.PDTV.XviD-SomeTV.avi 
Format : AVI 
Format/Info : Audio Video Interleave 
File size : 348 MiB 
Duration : 47mn 7s 
Overall bit rate : 1 033 Kbps 
Writing application : VirtualDubMod 1.5.10.2 (build 2540/release) 
Writing library : VirtualDubMod build 2540/release 

Video 
ID : 0 
Format : MPEG-4 Visual 
Format profile : Advanced Simple@L5 
Format settings, BVOP : Yes 
Format settings, QPel : No 
Format settings, GMC : No warppoints 
Format settings, Matrix : Default (H.263) 
Muxing mode : Packed bitstream 
Codec ID : XviD 
Codec ID/Hint : XviD 
Duration : 47mn 7s 
Bit rate : 889 Kbps 
Width : 576 pixels 
Height : 368 pixels 
Display aspect ratio : 1.565 
Frame rate : 25.000 fps 
Resolution : 8 bits 
Colorimetry : 4:2:0 
Scan type : Progressive 
Bits/(Pixel*Frame) : 0.168 
Stream size : 300 MiB (86%) 
Writing library : XviD 1.2.1 (UTC 2008-12-04) 

Audio 
ID : 1 
Format : MPEG Audio 
Format version : Version 1 
Format profile : Layer 3 
Mode : Joint stereo 
Codec ID : 55 
Codec ID/Hint : MP3 
Duration : 47mn 7s 
Bit rate mode : Variable 
Bit rate : 128 Kbps 
Channel(s) : 2 channels 
Sampling rate : 48.0 KHz 
Stream size : 44.1 MiB (13%) 
Alignment : Aligned on interleaves 
Interleave, duration : 24 ms (0.60 video frame) 
Interleave, preload duration : 510 ms 
Writing library : LAME3.90. 
Encoding settings : -m j -V 4 -q 2 -lowpass 17.6 --abr 128 

Complete name : National.Geographic.Wild.Worlds.Wildest.Encounters.Part2.PDTV.XviD-SomeTV.avi 
Format : AVI 
Format/Info : Audio Video Interleave 
File size : 349 MiB 
Duration : 47mn 17s 
Overall bit rate : 1 032 Kbps 
Writing application : VirtualDubMod 1.5.10.2 (build 2540/release) 
Writing library : VirtualDubMod build 2540/release 

Video 
ID : 0 
Format : MPEG-4 Visual 
Format profile : Advanced Simple@L5 
Format settings, BVOP : Yes 
Format settings, QPel : No 
Format settings, GMC : No warppoints 
Format settings, Matrix : Default (H.263) 
Muxing mode : Packed bitstream 
Codec ID : XviD 
Codec ID/Hint : XviD 
Duration : 47mn 17s 
Bit rate : 889 Kbps 
Width : 576 pixels 
Height : 368 pixels 
Display aspect ratio : 1.565 
Frame rate : 25.000 fps 
Resolution : 8 bits 
Colorimetry : 4:2:0 
Scan type : Progressive 
Bits/(Pixel*Frame) : 0.168 
Stream size : 301 MiB (86%) 
Writing library : XviD 1.2.1 (UTC 2008-12-04) 

Audio 
ID : 1 
Format : MPEG Audio 
Format version : Version 1 
Format profile : Layer 3 
Mode : Joint stereo 
Format_Settings_ModeExtension : MS Stereo 
Codec ID : 55 
Codec ID/Hint : MP3 
Duration : 47mn 17s 
Bit rate mode : Variable 
Bit rate : 128 Kbps 
Channel(s) : 2 channels 
Sampling rate : 48.0 KHz 
Stream size : 43.8 MiB (13%) 
Alignment : Aligned on interleaves 
Interleave, duration : 24 ms (0.60 video frame) 
Interleave, preload duration : 499 ms 
Writing library : LAME3.90. 
Encoding settings : -m j -V 4 -q 2 -lowpass 17.6 --abr 128 
National.Geographic.Wild.Worlds.Wildest.Encounters.Part1.PDTV.XviD-SomeTV.avi  [348.13 Mb]
National.Geographic.Wild.Worlds.Wildest.Encounters.Part2.PDTV.XviD-SomeTV.avi  [348.97 Mb]

[ Add all 2 links to your ed2k client ]

Post Reply

Return to “Educational”