National Geographic - Stone Age Atlantis (2010)

For educational and documentary series, from History Channel, National Geographic, etc.
Post Reply
emoneypitt
Donator
Donator
Posts: 551
Joined: Sat Jun 16, 2007 11:11 am
Location: USA
Been thanked: 1 time

National Geographic - Stone Age Atlantis (2010)

Post by emoneypitt » Fri Oct 29, 2010 9:55 am

National Geographic - Stone Age Atlantis
Melting ice - rising seas - a huge tsunami wave heads for the coast. These are not headlines from today; they are stories from our prehistoric past. In Stone Age times - Northern Europe was a wonderful place to live where people pioneered a new, advanced, culture. But these were also times of frantic climate change when the seas were rising; drowning the land. See the story of a lost world in Stone Age Atlantis.

Today, we worry about the effects of global warming, but humans have lived though eras of extreme climate change before. During the Middle Stone Age, the world's seas were rising far more rapidly than today. In Northern Europe, an area the size of California disappeared under the waves. This programme features the archaeologists who are now reconstructing this lost land and have given it a name - Doggerland.
http://natgeotv.com/uk/stone-age-atlantis/about

Code: Select all

Complete name : National.Geographic.Stone.Age.Atlantis.PDTV.XviD-MVGroup.avi 
Format : AVI 
Format/Info : Audio Video Interleave 
File size : 1.09 GiB 
Duration : 1h 33mn 
Overall bit rate : 1 667 Kbps 
Writing application : VirtualDubMod 1.5.4.1 (build 2178/release) 
Writing library : VirtualDubMod build 2178/release 

Video 
ID : 0 
Format : MPEG-4 Visual 
Format profile : Advanced Simple@L5 
Format settings, BVOP : Yes 
Format settings, QPel : No 
Format settings, GMC : No warppoints 
Format settings, Matrix : Custom 
Codec ID : XviD 
Codec ID/Hint : XviD 
Duration : 1h 33mn 
Bit rate : 1 531 Kbps 
Width : 704 pixels 
Height : 400 pixels 
Display aspect ratio : 16:9 
Frame rate : 25.000 fps 
Resolution : 8 bits 
Colorimetry : 4:2:0 
Scan type : Progressive 
Bits/(Pixel*Frame) : 0.218 
Stream size : 1.00 GiB (92%) 
Writing library : XviD 1.2.1 (UTC 2008-12-04) 

Audio 
ID : 1 
Format : MPEG Audio 
Format version : Version 1 
Format profile : Layer 3 
Mode : Joint stereo 
Codec ID : 55 
Codec ID/Hint : MP3 
Duration : 1h 33mn 
Bit rate mode : Constant 
Bit rate : 128 Kbps 
Channel(s) : 2 channels 
Sampling rate : 48.0 KHz 
Stream size : 86.0 MiB (8%) 
Alignment : Aligned on interleaves 
Interleave, duration : 80 ms (2.00 video frames) 
Interleave, preload duration : 504 ms 
Writing library : LAME3.98r 
Encoding settings : -m j -V 4 -q 2 -lowpass 17.5 -b 128 
Thanks to TVU

National.Geographic.Stone.Age.Atlantis.PDTV.XviD-MVGroup.avi  [1.09 Gb]

Dany Bhoy
Donator
Donator
Posts: 85
Joined: Mon Feb 27, 2006 6:20 am

Re: National Geographic - Stone Age Atlantis (2010)

Post by Dany Bhoy » Fri Oct 29, 2010 12:18 pm

Thanks :clap

TSM
Registered user
Registered user
Posts: 52
Joined: Sat Oct 11, 2008 8:31 am
Has thanked: 133 times
Been thanked: 1 time

Re: National Geographic - Stone Age Atlantis (2010)

Post by TSM » Fri Oct 29, 2010 3:08 pm

Those of you interested in this will be interested in the Time Team Special "Britain's Drowned World" which aired 24 April 2007. It was episode #172.

http://sharethefiles.com/forum/viewtopi ... 4#p1054604

Enjoy

Post Reply

Return to “Educational”