National Geographic - Valley of the Kings (2008)

For educational and documentary series, from History Channel, National Geographic, etc.
Post Reply
emoneypitt
Donator
Donator
Posts: 526
Joined: Sat Jun 16, 2007 11:11 am
Location: USA
Been thanked: 1 time

National Geographic - Valley of the Kings (2008)

Post by emoneypitt » Thu Oct 28, 2010 11:29 am

National Geographic - Valley of the Kings
How did the Egyptians build the tombs in the Valley of the Kings? This film uses the latest technology to look at the evolution of tomb building in the Valley, including the changes that were made to the layout and location of the tombs. The program investigates several questions, including: Did the pharaohs choose their tombs according to the geology of the Valley as some have suggested? What early technology was used to construct the tombs underground and what happened when it went wrong? How did the builders of the tombs live?
http://channel.nationalgeographic.com/s ... b-Overview
http://www.nationalgeographic.com/histo ... kings.html

Code: Select all

Complete name : National.Geographic.Valley.Of.The.Kings.DVDRip.XviD-MVGroup.avi 
Format : AVI 
Format/Info : Audio Video Interleave 
File size : 640 MiB 
Duration : 47mn 10s 
Overall bit rate : 1 897 Kbps 
Writing application : VirtualDubMod 1.5.4.1 (build 2178/release) 
Writing library : VirtualDubMod build 2178/release 

Video 
ID : 0 
Format : MPEG-4 Visual 
Format profile : Advanced Simple@L5 
Format settings, BVOP : Yes 
Format settings, QPel : No 
Format settings, GMC : No warppoints 
Format settings, Matrix : Custom 
Codec ID : XviD 
Codec ID/Hint : XviD 
Duration : 47mn 10s 
Bit rate : 1 698 Kbps 
Width : 704 pixels 
Height : 400 pixels 
Display aspect ratio : 16:9 
Frame rate : 25.000 fps 
Resolution : 8 bits 
Colorimetry : 4:2:0 
Scan type : Progressive 
Bits/(Pixel*Frame) : 0.241 
Stream size : 573 MiB (90%) 
Writing library : XviD 1.2.1 (UTC 2008-12-04) 

Audio 
ID : 1 
Format : AC-3 
Format/Info : Audio Coding 3 
Format_Settings_ModeExtension : CM (complete main) 
Codec ID : 2000 
Duration : 47mn 10s 
Bit rate mode : Constant 
Bit rate : 192 Kbps 
Channel(s) : 2 channels 
Channel positions : Front: L R 
Sampling rate : 48.0 KHz 
Video delay : 8ms 
Stream size : 64.8 MiB (10%) 
Alignment : Split accross interleaves 
Interleave, duration : 96 ms (2.40 video frames) 
Interleave, preload duration : 96 ms 
Thanks to TVU

National.Geographic.Valley.Of.The.Kings.DVDRip.XviD-MVGroup.avi  [640.23 Mb]

Post Reply

Return to “Educational”