National Geographic - Peru's Lost Pyramid City

For educational and documentary series, from History Channel, National Geographic, etc.
Post Reply
emoneypitt
Donator
Donator
Posts: 551
Joined: Sat Jun 16, 2007 11:11 am
Location: USA
Been thanked: 1 time

National Geographic - Peru's Lost Pyramid City

Post by emoneypitt » Sat Oct 09, 2010 8:13 am

National Geographic - Peru's Lost Pyramid City
Five hundred years ago, the last great pyramid-building civilization descended into a world of unimaginable horror. What drove them to extremes of human sacrifice?
http://channel.nationalgeographic.com/e ... 7/Overview

Not sure what year this is from. Credits are cut off at the end.

Code: Select all

Complete name : National.Geographic.Perus.Lost.Pyramid.City.FS.PDTV.x264-Phatwarez.mkv 
Format : Matroska 
File size : 349 MiB 
Duration : 45mn 45s 
Overall bit rate : 1 066 Kbps 
Encoded date : UTC 2010-09-25 20:11:03 
Writing application : mkvmerge v4.0.0 ('The Stars were mine') built on Jun 6 2010 16:18:42 
Writing library : libebml v1.0.0 + libmatroska v1.0.0 

Video 
ID : 1 
Format : AVC 
Format/Info : Advanced Video Codec 
Format profile : High@L4.0 
Format settings, CABAC : Yes 
Format settings, ReFrames : 16 frames 
Muxing mode : Container profile=Unknown@4.0 
Codec ID : V_MPEG4/ISO/AVC 
Duration : 45mn 45s 
Bit rate : 946 Kbps 
Width : 720 pixels 
Height : 480 pixels 
Display aspect ratio : 4:3 
Original display aspect ratio : 4:3 
Frame rate : 29.970 fps 
Standard : NTSC 
Resolution : 8 bits 
Colorimetry : 4:2:0 
Scan type : Progressive 
Bits/(Pixel*Frame) : 0.091 
Stream size : 303 MiB (87%) 
Writing library : x264 core 98 r1649 c54c47d 
Encoding settings : cabac=1 / ref=16 / deblock=1:0:0 / analyse=0x3:0x133 / me=umh / subme=10 / psy=1 / psy_rd=1.00:0.00 / mixed_ref=1 / me_range=24 / chroma_me=1 / trellis=2 / 8x8dct=1 / cqm=0 / deadzone=21,11 / fast_pskip=1 / chroma_qp_offset=-2 / threads=3 / sliced_threads=0 / nr=0 / decimate=1 / interlaced=0 / constrained_intra=0 / bframes=8 / b_pyramid=2 / b_adapt=2 / b_bias=0 / direct=3 / weightb=1 / weightp=2 / keyint=250 / keyint_min=25 / scenecut=40 / intra_refresh=0 / rc_lookahead=60 / rc=2pass / mbtree=1 / bitrate=946 / ratetol=1.0 / qcomp=0.60 / qpmin=10 / qpmax=51 / qpstep=4 / cplxblur=20.0 / qblur=0.5 / ip_ratio=1.40 / aq=1:1.00 

Audio 
ID : 2 
Format : MPEG Audio 
Format version : Version 1 
Format profile : Layer 3 
Mode : Joint stereo 
Format_Settings_ModeExtension : MS Stereo 
Codec ID : A_MPEG/L3 
Codec ID/Hint : MP3 
Duration : 45mn 45s 
Bit rate mode : Variable 
Bit rate : 118 Kbps 
Minimum bit rate : 32.0 Kbps 
Channel(s) : 2 channels 
Sampling rate : 48.0 KHz 
Stream size : 38.7 MiB (11%) 
Writing library : LAME3.98r 
Encoding settings : -m j -V 3 -q 0 -lowpass 18 --vbr-new -b 32 
ImageImageImageImageImage

National.Geographic.Perus.Lost.Pyramid.City.FS.PDTV.x264-Phatwarez.mkv  [348.90 Mb]

Post Reply

Return to “Educational”