National Geographic - Shrink-Wrapped & Boxed Up (2006)

For educational and documentary series, from History Channel, National Geographic, etc.
Post Reply
emoneypitt
Donator
Donator
Posts: 526
Joined: Sat Jun 16, 2007 11:11 am
Location: USA
Been thanked: 1 time

National Geographic - Shrink-Wrapped & Boxed Up (2006)

Post by emoneypitt » Thu Sep 16, 2010 8:44 am

National Geographic - Shrink-Wrapped & Boxed Up
Since the ancient Greeks and Romans started storing wine in ceramic vases, packaging has evolved to withstand plane crashes, outwit shoplifters, and reduce landfill trash. Packaging made from corn and rice may point the way to a cleaner future.
http://channel.nationalgeographic.com/e ... 6/Overview

Code: Select all

Complete name : National.Geographic.Shrink-Wrapped.and.Boxed.Up.HDTV.XviD-MOMENTUM.avi 
Format : AVI 
Format/Info : Audio Video Interleave 
Format profile : OpenDML 
File size : 350 MiB 
Duration : 45mn 49s 
Overall bit rate : 1 067 Kbps 
Writing application : AVI-Mux GUI 1.17.8.3, Feb 16 201019:42:50 

Video 
ID : 0 
Format : MPEG-4 Visual 
Format profile : Advanced Simple@L5 
Format settings, BVOP : Yes 
Format settings, QPel : No 
Format settings, GMC : No warppoints 
Format settings, Matrix : Default (MPEG) 
Codec ID : XviD 
Codec ID/Hint : XviD 
Duration : 45mn 49s 
Bit rate : 935 Kbps 
Width : 624 pixels 
Height : 352 pixels 
Display aspect ratio : 16:9 
Frame rate : 29.970 fps 
Resolution : 8 bits 
Colorimetry : 4:2:0 
Scan type : Progressive 
Bits/(Pixel*Frame) : 0.142 
Stream size : 306 MiB (88%) 
Writing library : XviD 1.2.1 (UTC 2008-12-04) 

Audio 
ID : 1 
Format : MPEG Audio 
Format version : Version 1 
Format profile : Layer 3 
Mode : Joint stereo 
Format_Settings_ModeExtension : MS Stereo 
Codec ID : 55 
Codec ID/Hint : MP3 
Duration : 45mn 49s 
Bit rate mode : Variable 
Bit rate : 123 Kbps 
Nominal bit rate : 128 Kbps 
Channel(s) : 2 channels 
Sampling rate : 48.0 KHz 
Stream size : 40.2 MiB (11%) 
Alignment : Aligned on interleaves 
Interleave, duration : 24 ms (0.72 video frame) 
Interleave, preload duration : 216 ms 
Title : natgeo_Output 
Writing library : LAME3.98r 
Encoding settings : -m j -V 4 -q 2 -lowpass 17 --abr 128 
National.Geographic.Shrink-Wrapped.and.Boxed.Up.HDTV.XviD-MOMENTUM.avi  [349.71 Mb]

Post Reply

Return to “Educational”