Discovery Channel - Last Day of the Dinosaurs (2010)

For educational and documentary series, from History Channel, National Geographic, etc.
Post Reply
emoneypitt
Donator
Donator
Posts: 526
Joined: Sat Jun 16, 2007 11:11 am
Location: USA
Been thanked: 1 time

Discovery Channel - Last Day of the Dinosaurs (2010)

Post by emoneypitt » Thu Sep 16, 2010 6:19 am

Discovery Channel - Last Day of the Dinosaurs

CGI animated documentary that details the plight of the dinosaurs shortly before and after the asteroid attack 65 million years ago that led to their extinction.

A few short video clips available to preview here: http://dsc.discovery.com/videos/last-da ... -time.html

Code: Select all

Complete name : Discovery.Channel.Last.Day.of.the.Dinosaurs.HDTV.XviD-MOMENTUM.avi 
Format : AVI 
Format/Info : Audio Video Interleave 
Format profile : OpenDML 
File size : 350 MiB 
Duration : 43mn 33s 
Overall bit rate : 1 123 Kbps 
Writing application : AVI-Mux GUI 1.17.8.3, Feb 16 201019:42:50 

Video 
ID : 0 
Format : MPEG-4 Visual 
Format profile : Advanced Simple@L5 
Format settings, BVOP : Yes 
Format settings, QPel : No 
Format settings, GMC : No warppoints 
Format settings, Matrix : Default (MPEG) 
Codec ID : XviD 
Codec ID/Hint : XviD 
Duration : 43mn 33s 
Bit rate : 991 Kbps 
Width : 624 pixels 
Height : 352 pixels 
Display aspect ratio : 16:9 
Frame rate : 29.970 fps 
Resolution : 8 bits 
Colorimetry : 4:2:0 
Scan type : Progressive 
Bits/(Pixel*Frame) : 0.150 
Stream size : 309 MiB (88%) 
Writing library : XviD 1.2.1 (UTC 2008-12-04) 

Audio 
ID : 1 
Format : MPEG Audio 
Format version : Version 1 
Format profile : Layer 3 
Mode : Joint stereo 
Codec ID : 55 
Codec ID/Hint : MP3 
Duration : 43mn 33s 
Bit rate mode : Variable 
Bit rate : 123 Kbps 
Nominal bit rate : 128 Kbps 
Channel(s) : 2 channels 
Sampling rate : 48.0 KHz 
Stream size : 38.2 MiB (11%) 
Alignment : Aligned on interleaves 
Interleave, duration : 24 ms (0.72 video frame) 
Interleave, preload duration : 206 ms 
Title : dino_Output 
Writing library : LAME3.98r 
Encoding settings : -m j -V 4 -q 2 -lowpass 17 --abr 128 
Discovery.Channel.Last.Day.of.the.Dinosaurs.HDTV.XviD-MOMENTUM.avi  [349.86 Mb]

deadbodyman
Registered user
Registered user
Posts: 1787
Joined: Wed Aug 22, 2007 10:52 pm

Re: Discovery Channel - Last Day of the Dinosaurs (2010)

Post by deadbodyman » Thu Sep 16, 2010 7:15 am

Thank you. :)

008
Registered user
Registered user
Posts: 51
Joined: Thu Dec 11, 2008 3:58 am
Has thanked: 1 time

Re: Discovery Channel - Last Day of the Dinosaurs (2010)

Post by 008 » Fri Sep 17, 2010 5:26 am

Thanks!

Dany Bhoy
Donator
Donator
Posts: 85
Joined: Mon Feb 27, 2006 6:20 am

Re: Discovery Channel - Last Day of the Dinosaurs (2010)

Post by Dany Bhoy » Fri Sep 17, 2010 1:53 pm

Thanks!

Post Reply

Return to “Educational”