National Geographic - Tribal Secrets

For educational and documentary series, from History Channel, National Geographic, etc.
Post Reply
emoneypitt
Donator
Donator
Posts: 526
Joined: Sat Jun 16, 2007 11:11 am
Location: USA
Been thanked: 1 time

National Geographic - Tribal Secrets

Post by emoneypitt » Tue Sep 14, 2010 10:46 am

National Geographic - Tribal Secrets
Real stories about real people.

This Tribal Odyssey collection of three episodes is based upon character led stories told in their own words. These are real stories about real human dramas, containing narratives repeated throughout every human community in the world. In the film the viewer has a strong sense of 'presence'. You feel that you are actually there and that the stories and relationships that intertwine with the characters are familiar even to Western audiences. The three primitive people in this series are the Dinka, the Hamar and the Wodaabe.
http://natgeotv.com/asia/tribal-odyssey/about

These episodes are also known as Tribal Odyessy. Apparently, there's also more than three episodes but......... ;)

Code: Select all

Complete name : National.Geographic.Tribal.Secrets.The.Dinka.HDTV.XviD-MOMENTUM.avi 
Format : AVI 
Format/Info : Audio Video Interleave 
Format profile : OpenDML 
File size : 350 MiB 
Duration : 45mn 3s 
Overall bit rate : 1 086 Kbps 
Writing application : AVI-Mux GUI 1.17.8.3, Feb 16 201019:42:50 

Video 
ID : 0 
Format : MPEG-4 Visual 
Format profile : Advanced Simple@L5 
Format settings, BVOP : Yes 
Format settings, QPel : No 
Format settings, GMC : No warppoints 
Format settings, Matrix : Default (MPEG) 
Codec ID : XviD 
Codec ID/Hint : XviD 
Duration : 45mn 3s 
Bit rate : 952 Kbps 
Width : 624 pixels 
Height : 352 pixels 
Display aspect ratio : 16:9 
Frame rate : 29.970 fps 
Resolution : 8 bits 
Colorimetry : 4:2:0 
Scan type : Progressive 
Bits/(Pixel*Frame) : 0.145 
Stream size : 307 MiB (88%) 
Writing library : XviD 1.2.1 (UTC 2008-12-04) 

Audio 
ID : 1 
Format : MPEG Audio 
Format version : Version 1 
Format profile : Layer 3 
Mode : Joint stereo 
Format_Settings_ModeExtension : MS Stereo 
Codec ID : 55 
Codec ID/Hint : MP3 
Duration : 45mn 3s 
Bit rate mode : Variable 
Bit rate : 124 Kbps 
Nominal bit rate : 128 Kbps 
Channel(s) : 2 channels 
Sampling rate : 48.0 KHz 
Stream size : 40.0 MiB (11%) 
Alignment : Aligned on interleaves 
Interleave, duration : 24 ms (0.72 video frame) 
Interleave, preload duration : 182 ms 
Title : dinka_Output 
Writing library : LAME3.98r 
Encoding settings : -m j -V 4 -q 2 -lowpass 17 --abr 128 

----------------------------------------------------------------------------------------------------------------------------------------------------

Complete name : National.Geographic.Tribal.Secrets.The.Hamar.720p.HDTV.x264-DiVERGE.mkv 
Format : Matroska 
File size : 1.09 GiB 
Duration : 45mn 34s 
Overall bit rate : 3 431 Kbps 
Encoded date : UTC 2010-09-11 11:13:57 
Writing application : mkvmerge v4.0.0 ('The Stars were mine') built on Jun 6 2010 16:18:42 
Writing library : libebml v1.0.0 + libmatroska v1.0.0 

Video 
ID : 1 
Format : AVC 
Format/Info : Advanced Video Codec 
Format profile : High@L3.1 
Format settings, CABAC : Yes 
Format settings, ReFrames : 4 frames 
Muxing mode : Container profile=Unknown@3.1 
Codec ID : V_MPEG4/ISO/AVC 
Duration : 45mn 34s 
Bit rate : 3 046 Kbps 
Width : 1 280 pixels 
Height : 720 pixels 
Display aspect ratio : 16:9 
Frame rate : 29.970 fps 
Resolution : 8 bits 
Colorimetry : 4:2:0 
Scan type : Progressive 
Bits/(Pixel*Frame) : 0.110 
Stream size : 971 MiB (87%) 
Writing library : x264 core 98 r1649 20cbe10 
Encoding settings : cabac=1 / ref=5 / deblock=1:0:0 / analyse=0x3:0x113 / me=umh / subme=7 / psy=1 / psy_rd=1.00:0.00 / mixed_ref=1 / me_range=16 / chroma_me=1 / trellis=1 / 8x8dct=1 / cqm=0 / deadzone=21,11 / fast_pskip=0 / chroma_qp_offset=-2 / threads=10 / sliced_threads=0 / nr=0 / decimate=1 / interlaced=0 / constrained_intra=0 / bframes=3 / b_pyramid=1 / b_adapt=1 / b_bias=0 / direct=1 / weightb=1 / weightp=2 / keyint=300 / keyint_min=30 / scenecut=40 / intra_refresh=0 / rc_lookahead=40 / rc=2pass / mbtree=1 / bitrate=3046 / ratetol=1.0 / qcomp=0.60 / qpmin=10 / qpmax=51 / qpstep=4 / cplxblur=20.0 / qblur=0.5 / ip_ratio=1.40 / aq=1:1.00 

Audio 
ID : 2 
Format : AC-3 
Format/Info : Audio Coding 3 
Format_Settings_ModeExtension : CM (complete main) 
Codec ID : A_AC3 
Duration : 45mn 34s 
Bit rate mode : Constant 
Bit rate : 384 Kbps 
Channel(s) : 6 channels 
Channel positions : Front: L C R, Side: L R, LFE 
Sampling rate : 48.0 KHz 
Stream size : 125 MiB (11%) 

------------------------------------------------------------------------------------------------------------------------------------------------------------------

Complete name : National.Geographic.Tribal.Secrets.The.Wodaabe.HDTV.XviD-MOMENTUM.avi 
Format : AVI 
Format/Info : Audio Video Interleave 
Format profile : OpenDML 
File size : 350 MiB 
Duration : 45mn 48s 
Overall bit rate : 1 067 Kbps 
Writing application : AVI-Mux GUI 1.17.8.3, Feb 16 201019:42:50 

Video 
ID : 0 
Format : MPEG-4 Visual 
Format profile : Advanced Simple@L5 
Format settings, BVOP : Yes 
Format settings, QPel : No 
Format settings, GMC : No warppoints 
Format settings, Matrix : Default (MPEG) 
Codec ID : XviD 
Codec ID/Hint : XviD 
Duration : 45mn 48s 
Bit rate : 933 Kbps 
Width : 624 pixels 
Height : 352 pixels 
Display aspect ratio : 16:9 
Frame rate : 29.970 fps 
Resolution : 8 bits 
Colorimetry : 4:2:0 
Scan type : Progressive 
Bits/(Pixel*Frame) : 0.142 
Stream size : 306 MiB (88%) 
Writing library : XviD 1.2.1 (UTC 2008-12-04) 

Audio 
ID : 1 
Format : MPEG Audio 
Format version : Version 1 
Format profile : Layer 3 
Mode : Joint stereo 
Format_Settings_ModeExtension : MS Stereo 
Codec ID : 55 
Codec ID/Hint : MP3 
Duration : 45mn 48s 
Bit rate mode : Variable 
Bit rate : 124 Kbps 
Nominal bit rate : 128 Kbps 
Channel(s) : 2 channels 
Sampling rate : 48.0 KHz 
Stream size : 40.5 MiB (12%) 
Alignment : Aligned on interleaves 
Interleave, duration : 24 ms (0.72 video frame) 
Interleave, preload duration : 180 ms 
Title : wodaabe_Output 
Writing library : LAME3.98r 
Encoding settings : -m j -V 4 -q 2 -lowpass 17 --abr 128 
Warning, shows contain nudity.

The Dinka - Follow us to south Africa and witness the Dinka men doing the traditional dowry dance at their wedding ceremony to impress their wife.

National.Geographic.Tribal.Secrets.The.Dinka.HDTV.XviD-MOMENTUM.avi  [349.84 Mb]

The Hamar - Join us in Southern Ethiopia.We showcase the story of 2 young Hamar men; Burqi becoming the next man in the family line and Gele entering manhood.

National.Geographic.Tribal.Secrets.The.Hamar.720p.HDTV.x264-DiVERGE.mkv  [1.09 Gb]

The Wodaabe - Meet the Wodaabe, one of the most extraordinary tribes on earth. Follow us to see three of their very important ceremonies.

National.Geographic.Tribal.Secrets.The.Wodaabe.HDTV.XviD-MOMENTUM.avi  [349.54 Mb]

[ Add all 3 links to your ed2k client ]

michameta
Registered user
Registered user
Posts: 19
Joined: Mon Jun 01, 2009 2:13 pm

Re: National Geographic - Tribal Secrets

Post by michameta » Thu Dec 29, 2011 3:22 pm

Tnx A lot :nav :nav

Post Reply

Return to “Educational”