National Geographic - And Man Created Dog (2010)

For educational and documentary series, from History Channel, National Geographic, etc.
Post Reply
emoneypitt
Donator
Donator
Posts: 550
Joined: Sat Jun 16, 2007 11:11 am
Location: USA
Been thanked: 1 time

National Geographic - And Man Created Dog (2010)

Post by emoneypitt » Sun Aug 29, 2010 3:51 pm

National Geographic - And Man Created Dog

The story of evolution as related to the relationship between man and dog.

http://channel.nationalgeographic.com/c ... reated-dog

Code: Select all

Complete name : National.Geographic.And.Man.Created.Dog.2010.HDTV.XviD-MOMENTUM.avi 
Format : AVI 
Format/Info : Audio Video Interleave 
Format profile : OpenDML 
File size : 699 MiB 
Duration : 1h 31mn 
Overall bit rate : 1 070 Kbps 
Writing application : AVI-Mux GUI 1.17.8.3, Feb 16 201019:42:50 

Video 
ID : 0 
Format : MPEG-4 Visual 
Format profile : Advanced Simple@L5 
Format settings, BVOP : Yes 
Format settings, QPel : No 
Format settings, GMC : No warppoints 
Format settings, Matrix : Default (MPEG) 
Codec ID : XviD 
Codec ID/Hint : XviD 
Duration : 1h 31mn 
Bit rate : 937 Kbps 
Width : 624 pixels 
Height : 352 pixels 
Display aspect ratio : 16:9 
Frame rate : 23.976 fps 
Resolution : 8 bits 
Colorimetry : 4:2:0 
Scan type : Progressive 
Bits/(Pixel*Frame) : 0.178 
Stream size : 612 MiB (88%) 
Writing library : XviD 1.2.1 (UTC 2008-12-04) 

Audio 
ID : 1 
Format : MPEG Audio 
Format version : Version 1 
Format profile : Layer 3 
Mode : Joint stereo 
Format_Settings_ModeExtension : MS Stereo 
Codec ID : 55 
Codec ID/Hint : MP3 
Duration : 1h 31mn 
Bit rate mode : Variable 
Bit rate : 124 Kbps 
Nominal bit rate : 128 Kbps 
Channel(s) : 2 channels 
Sampling rate : 48.0 KHz 
Stream size : 81.2 MiB (12%) 
Alignment : Aligned on interleaves 
Interleave, duration : 24 ms (0.58 video frame) 
Interleave, preload duration : 203 ms 
Title : dog_AudioOutput 
Writing library : LAME3.98r 
Encoding settings : -m j -V 4 -q 2 -lowpass 17 --abr 128-m j -V 4 -q 2 -lowpass 17 --abr 128-m j -V 4 -q 2 -lowpass 17 --abr 128 
National.Geographic.And.Man.Created.Dog.2010.HDTV.XviD-MOMENTUM.avi  [698.96 Mb]

Post Reply

Return to “Educational”