National Geographic - The Real Slumdogs (2010)

For educational and documentary series, from History Channel, National Geographic, etc.
Post Reply
emoneypitt
Donator
Donator
Posts: 524
Joined: Sat Jun 16, 2007 11:11 am
Location: USA
Been thanked: 1 time

National Geographic - The Real Slumdogs (2010)

Post by emoneypitt » Fri Aug 13, 2010 10:03 am

National Geographic - The Real Slumdogs
The Oscar-winning film "Slumdog Millionaire" put India's largest slum, Dharavi, on the map. Much more than a slum, this mini-city bustles with industry, culture and dreams. See the day-to-day activities and hear real-life accounts from its inhabitants, who have goals and aspirations -- people who are struggling to survive in a community that defies expectation.
http://channel.nationalgeographic.com/e ... b-Overview

Code: Select all

Complete name : National.Geographic.The.Real.Slumdogs.HDTV.XviD-MOMENTUM.avi 
Format : AVI 
Format/Info : Audio Video Interleave 
Format profile : OpenDML 
File size : 349 MiB 
Duration : 45mn 44s 
Overall bit rate : 1 067 Kbps 
Writing application : AVI-Mux GUI 1.17.8.3, Feb 16 201019:42:50 

Video 
ID : 0 
Format : MPEG-4 Visual 
Format profile : Advanced Simple@L5 
Format settings, BVOP : Yes 
Format settings, QPel : No 
Format settings, GMC : No warppoints 
Format settings, Matrix : Default (MPEG) 
Codec ID : XviD 
Codec ID/Hint : XviD 
Duration : 45mn 44s 
Bit rate : 935 Kbps 
Width : 624 pixels 
Height : 352 pixels 
Display aspect ratio : 16:9 
Frame rate : 29.970 fps 
Resolution : 8 bits 
Colorimetry : 4:2:0 
Scan type : Progressive 
Bits/(Pixel*Frame) : 0.142 
Stream size : 306 MiB (88%) 
Writing library : XviD 1.2.1 (UTC 2008-12-04) 

Audio 
ID : 1 
Format : MPEG Audio 
Format version : Version 1 
Format profile : Layer 3 
Mode : Joint stereo 
Format_Settings_ModeExtension : MS Stereo 
Codec ID : 55 
Codec ID/Hint : MP3 
Duration : 45mn 43s 
Bit rate mode : Variable 
Bit rate : 123 Kbps 
Nominal bit rate : 128 Kbps 
Channel(s) : 2 channels 
Sampling rate : 48.0 KHz 
Stream size : 40.2 MiB (12%) 
Alignment : Aligned on interleaves 
Interleave, duration : 24 ms (0.72 video frame) 
Interleave, preload duration : 201 ms 
Title : slumdog PID 7c1 3_2ch 384Kbps DELAY 32ms_AudioOutput 
Writing library : LAME3.98r 
Encoding settings : -m j -V 4 -q 2 -lowpass 17 --abr 128-m j -V 4 -q 2 -lowpass 17 --abr 128-m j -V 4 -q 2 -lowpass 17 --abr 128 
National.Geographic.The.Real.Slumdogs.HDTV.XviD-MOMENTUM.avi  [349.10 Mb]

Post Reply

Return to “Educational”