National Geographic - Sunken Treasures of the Nile (2009)

For educational and documentary series, from History Channel, National Geographic, etc.
Post Reply
emoneypitt
Donator
Donator
Posts: 551
Joined: Sat Jun 16, 2007 11:11 am
Location: USA
Been thanked: 1 time

National Geographic - Sunken Treasures of the Nile (2009)

Post by emoneypitt » Fri Aug 13, 2010 9:52 am

National Geographic - Sunken Treasures of the Nile
Of all the archaeological sites in Egypt that may still yield ancient treasure, perhaps the richest is the Nile River. Enormous boats navigated the river's perilous waters loaded with monumental items, obelisks and riches for the pharaoh's royal temples. The question remains ... what lost treasures could modern technology reveal at the bottom of the Nile? Join the archeological search to locate and extract these lost artifacts that could unlock some of the mysteries of Egyptian history.
http://channel.nationalgeographic.com/e ... 1/Overview

Code: Select all

Complete name : National.Geographic.Sunken.Treasures.of.the.Nile.WS.PDTV.XviD-MOMENTUM.avi 
Format : AVI 
Format/Info : Audio Video Interleave 
Format profile : OpenDML 
File size : 349 MiB 
Duration : 45mn 43s 
Overall bit rate : 1 067 Kbps 
Writing application : AVI-Mux GUI 1.17.8.3, Feb 16 201019:42:50 

Video 
ID : 0 
Format : MPEG-4 Visual 
Format profile : Advanced Simple@L5 
Format settings, BVOP : Yes 
Format settings, QPel : No 
Format settings, GMC : No warppoints 
Format settings, Matrix : Default (MPEG) 
Codec ID : XviD 
Codec ID/Hint : XviD 
Duration : 45mn 43s 
Bit rate : 935 Kbps 
Width : 624 pixels 
Height : 352 pixels 
Display aspect ratio : 16:9 
Frame rate : 29.970 fps 
Resolution : 8 bits 
Colorimetry : 4:2:0 
Scan type : Progressive 
Bits/(Pixel*Frame) : 0.142 
Stream size : 306 MiB (88%) 
Writing library : XviD 1.2.1 (UTC 2008-12-04) 

Audio 
ID : 1 
Format : MPEG Audio 
Format version : Version 1 
Format profile : Layer 3 
Mode : Joint stereo 
Codec ID : 55 
Codec ID/Hint : MP3 
Duration : 45mn 43s 
Bit rate mode : Variable 
Bit rate : 122 Kbps 
Nominal bit rate : 128 Kbps 
Channel(s) : 2 channels 
Sampling rate : 48.0 KHz 
Stream size : 40.0 MiB (11%) 
Alignment : Aligned on interleaves 
Interleave, duration : 24 ms (0.72 video frame) 
Interleave, preload duration : 222 ms 
Title : nile PID 7c1 3_2ch 384Kbps DELAY 0ms_AudioOutput 
Writing library : LAME3.98r 
Encoding settings : -m j -V 4 -q 2 -lowpass 17 --abr 128 
National.Geographic.Sunken.Treasures.of.the.Nile.WS.PDTV.XviD-MOMENTUM.avi  [348.82 Mb]

squirrel38
Registered user
Registered user
Posts: 140
Joined: Fri Dec 19, 2008 6:05 pm

Re: National Geographic - Sunken Treasures of the Nile (2009)

Post by squirrel38 » Fri Aug 13, 2010 2:31 pm

Thanks :clap

ronboom
Registered user
Registered user
Posts: 345
Joined: Wed Apr 12, 2006 12:39 am
Has thanked: 53 times

Re: National Geographic - Sunken Treasures of the Nile (2009)

Post by ronboom » Fri Aug 13, 2010 4:17 pm

Thanks, looks great

Dany Bhoy
Donator
Donator
Posts: 85
Joined: Mon Feb 27, 2006 6:20 am

Re: National Geographic - Sunken Treasures of the Nile (2009)

Post by Dany Bhoy » Sun Aug 15, 2010 1:10 pm

Thanks Mate....

Post Reply

Return to “Educational”