National Geographic - Writing the Dead Sea Scrolls (2010)

For educational and documentary series, from History Channel, National Geographic, etc.
Post Reply
emoneypitt
Donator
Donator
Posts: 526
Joined: Sat Jun 16, 2007 11:11 am
Location: USA
Been thanked: 1 time

National Geographic - Writing the Dead Sea Scrolls (2010)

Post by emoneypitt » Fri Aug 13, 2010 9:45 am

National Geographic - Writing the Dead Sea Scrolls
For decades, theories and controversies have swirled around the question of the true origins of the Dead Sea Scrolls -- one of the greatest archaeological finds in history. We'll go beyond enclosed glass displays to examine actual scroll fragments up close and explore the caves where they were found. Then, we'll examine a new clue to the identity of the scrolls' writers -- a 2,000-year-old cup inscribed with a secret text. Could analysis of this finding unravel the mystery
http://channel.nationalgeographic.com/e ... 9/Overview

Code: Select all

Complete name : National.Geographic.Writing.the.Dead.Sea.Scrolls.HDTV.XviD-MOMENTUM.avi 
Format : AVI 
Format/Info : Audio Video Interleave 
Format profile : OpenDML 
File size : 349 MiB 
Duration : 45mn 48s 
Overall bit rate : 1 065 Kbps 
Writing application : AVI-Mux GUI 1.17.8.3, Feb 16 201019:42:50 

Video 
ID : 0 
Format : MPEG-4 Visual 
Format profile : Advanced Simple@L5 
Format settings, BVOP : Yes 
Format settings, QPel : No 
Format settings, GMC : No warppoints 
Format settings, Matrix : Default (MPEG) 
Codec ID : XviD 
Codec ID/Hint : XviD 
Duration : 45mn 48s 
Bit rate : 934 Kbps 
Width : 624 pixels 
Height : 352 pixels 
Display aspect ratio : 16:9 
Frame rate : 29.970 fps 
Resolution : 8 bits 
Colorimetry : 4:2:0 
Scan type : Progressive 
Bits/(Pixel*Frame) : 0.142 
Stream size : 306 MiB (88%) 
Writing library : XviD 1.2.1 (UTC 2008-12-04) 

Audio 
ID : 1 
Format : MPEG Audio 
Format version : Version 1 
Format profile : Layer 3 
Mode : Joint stereo 
Format_Settings_ModeExtension : MS Stereo 
Codec ID : 55 
Codec ID/Hint : MP3 
Duration : 45mn 48s 
Bit rate mode : Variable 
Bit rate : 121 Kbps 
Nominal bit rate : 128 Kbps 
Channel(s) : 2 channels 
Sampling rate : 48.0 KHz 
Stream size : 39.7 MiB (11%) 
Alignment : Aligned on interleaves 
Interleave, duration : 24 ms (0.72 video frame) 
Interleave, preload duration : 243 ms 
Title : scrolls PID 7c1 3_2ch 384Kbps DELAY 0ms_AudioOutput 
Writing library : LAME3.98r 
Encoding settings : -m j -V 4 -q 2 -lowpass 17 --abr 128 
National.Geographic.Writing.the.Dead.Sea.Scrolls.HDTV.XviD-MOMENTUM.avi  [348.86 Mb]

ronboom
Registered user
Registered user
Posts: 336
Joined: Wed Apr 12, 2006 12:39 am
Has thanked: 53 times

Re: National Geographic - Writing the Dead Sea Scrolls (2010)

Post by ronboom » Fri Aug 13, 2010 4:14 pm

Sounds awesome, thanks!!!

voetsak
Donator
Donator
Posts: 763
Joined: Mon Sep 04, 2006 4:32 am
Has thanked: 185 times

Re: National Geographic - Writing the Dead Sea Scrolls (2010)

Post by voetsak » Sun Aug 15, 2010 9:45 am

thank you

Dany Bhoy
Donator
Donator
Posts: 85
Joined: Mon Feb 27, 2006 6:20 am

Re: National Geographic - Writing the Dead Sea Scrolls (2010)

Post by Dany Bhoy » Sun Aug 15, 2010 1:12 pm

Thanks!

Post Reply

Return to “Educational”