National Geographic - Gulf Oil Spill (2010)

For educational and documentary series, from History Channel, National Geographic, etc.
Post Reply
emoneypitt
Donator
Donator
Posts: 551
Joined: Sat Jun 16, 2007 11:11 am
Location: USA
Been thanked: 1 time

National Geographic - Gulf Oil Spill (2010)

Post by emoneypitt » Mon Jun 14, 2010 4:10 am

National Geographic - Gulf Oil Spill
It's one of America's biggest environmental disasters and the largest oil slick in the Gulf of Mexico since 1979. As experts scramble to stop the leak, find out what happened to the oil rig Deepwater Horizon as a blowout tore it apart, killing 11 of 126 men on board and sending oil toward Louisiana, Mississippi, Alabama and Florida coastlines. The special contains never-before-seen footage obtained from the U.S. Coast Guard, NGC's production crew and emergency response crews of the aftermath.
http://channel.nationalgeographic.com/e ... 8/Overview

Code: Select all

Complete name : National.Geographic.Gulf.Oil.Spill.HDTV.XviD-MOMENTUM.avi 
Format : AVI 
Format/Info : Audio Video Interleave 
Format profile : OpenDML 
File size : 349 MiB 
Duration : 45mn 48s 
Overall bit rate : 1 066 Kbps 
Writing application : AVI-Mux GUI 1.17.8.3, Feb 16 201019:42:50 

Video 
ID : 0 
Format : MPEG-4 Visual 
Format profile : Advanced Simple@L5 
Format settings, BVOP : Yes 
Format settings, QPel : No 
Format settings, GMC : No warppoints 
Format settings, Matrix : Default (MPEG) 
Codec ID : XviD 
Codec ID/Hint : XviD 
Duration : 45mn 48s 
Bit rate : 936 Kbps 
Width : 624 pixels 
Height : 352 pixels 
Display aspect ratio : 16:9 
Frame rate : 29.970 fps 
Resolution : 8 bits 
Colorimetry : 4:2:0 
Scan type : Progressive 
Bits/(Pixel*Frame) : 0.142 
Stream size : 307 MiB (88%) 
Writing library : XviD 1.2.1 (UTC 2008-12-04) 

Audio 
ID : 1 
Format : MPEG Audio 
Format version : Version 1 
Format profile : Layer 3 
Mode : Joint stereo 
Format_Settings_ModeExtension : MS Stereo 
Codec ID : 55 
Codec ID/Hint : MP3 
Duration : 45mn 48s 
Bit rate mode : Variable 
Bit rate : 121 Kbps 
Nominal bit rate : 128 Kbps 
Channel(s) : 2 channels 
Sampling rate : 48.0 KHz 
Stream size : 39.6 MiB (11%) 
Alignment : Aligned on interleaves 
Interleave, duration : 24 ms (0.72 video frame) 
Interleave, preload duration : 228 ms 
Title : gulf PID 7c1 3_2ch 384Kbps DELAY 0ms_AudioOutput 
Writing library : LAME3.98r 
Encoding settings : -m j -V 4 -q 2 -lowpass 17 --abr 128 
National.Geographic.Gulf.Oil.Spill.HDTV.XviD-MOMENTUM.avi  [349.33 Mb]

StarTrekFan
Registered user
Registered user
Posts: 182
Joined: Sat Oct 23, 2004 8:19 am
Been thanked: 12 times

Re: National Geographic - Gulf Oil Spill (2010)

Post by StarTrekFan » Tue Jul 13, 2010 7:52 am

Hmm, looks like I re-posted this in the "Other Non-Series TV / Documentaries" section, Dupe Check didn't (and still doesn't) show anything. Strange.. :?

stokers
Registered user
Registered user
Posts: 166
Joined: Thu Jan 25, 2007 3:55 am
Location: at the front door waiting for all my prizes after logging into stf.

Re: National Geographic - Gulf Oil Spill (2010)

Post by stokers » Tue Jul 13, 2010 8:20 am

well thanks to you both. :clap

emoneypitt
Donator
Donator
Posts: 551
Joined: Sat Jun 16, 2007 11:11 am
Location: USA
Been thanked: 1 time

Re: National Geographic - Gulf Oil Spill (2010)

Post by emoneypitt » Tue Jul 13, 2010 11:57 am

StarTrekFan wrote:Hmm, looks like I re-posted this in the "Other Non-Series TV / Documentaries" section, Dupe Check didn't (and still doesn't) show anything. Strange.. :?
I think the reason is that there is a slight difference in your ed2k title. You have the year (2010) included in your link while mine does not. Since it's the same exact file, both titles share the same hash but the Dupe Check doesn't detect anything because of the difference in the name.

Of course, I could be wrong but just my theory. :wink:

Post Reply

Return to “Educational”