National Geographic - Rhino Rescue (2009)

For educational and documentary series, from History Channel, National Geographic, etc.
Post Reply
emoneypitt
Donator
Donator
Posts: 551
Joined: Sat Jun 16, 2007 11:11 am
Location: USA
Been thanked: 1 time

National Geographic - Rhino Rescue (2009)

Post by emoneypitt » Thu Jun 10, 2010 10:42 am

National Geographic - Rhino Rescue
Filmmakers Dereck and Beverly Joubert help eradicate poaching and re-introduce wild rhinos.

Is extinction forever? Not in Botswana. This small country with a big heart and large wildlife area covering 27 percent of the countryside lost its rhinos – every last one of them – to poaching in the 1980's. Park officials rallied and introduced white rhino back into the wild. In the 1990's they went extinct in Botswana for a second time. In 1991, Emmy Award-winning filmmakers Dereck and Beverly Joubert discovered the last black rhino’s body after poachers had removed its horn.
http://natgeotv.com/asia/rhino-rescue

Code: Select all

Complete name : C:\Users\ed\Desktop\eMule Temp\Misc Share Folder\National.Geographic.Rhino.Rescue.DVDRip.XviD-VoMiT.avi 
Format : AVI 
Format/Info : Audio Video Interleave 
File size : 347 MiB 
Duration : 45mn 55s 
Overall bit rate : 1 057 Kbps 
Writing application : Nandub v1.0rc2 
Writing library : Nandub build 1852/release 

Video 
ID : 0 
Format : MPEG-4 Visual 
Format profile : Advanced Simple@L5 
Format settings, BVOP : No 
Format settings, QPel : No 
Format settings, GMC : No warppoints 
Format settings, Matrix : Default (H.263) 
Codec ID : XviD 
Codec ID/Hint : XviD 
Duration : 45mn 55s 
Bit rate : 915 Kbps 
Width : 640 pixels 
Height : 352 pixels 
Display aspect ratio : 16:9 
Frame rate : 23.976 fps 
Resolution : 8 bits 
Colorimetry : 4:2:0 
Scan type : Progressive 
Bits/(Pixel*Frame) : 0.169 
Stream size : 300 MiB (87%) 
Writing library : XviD 1.0.1 (UTC 2004-06-05) 

Audio 
ID : 1 
Format : MPEG Audio 
Format version : Version 1 
Format profile : Layer 3 
Mode : Joint stereo 
Format_Settings_ModeExtension : MS Stereo 
Codec ID : 55 
Codec ID/Hint : MP3 
Duration : 45mn 55s 
Bit rate mode : Variable 
Bit rate : 131 Kbps 
Channel(s) : 2 channels 
Sampling rate : 48.0 KHz 
Stream size : 42.5 MiB (12%) 
Alignment : Aligned on interleaves 
Interleave, duration : 24 ms (0.58 video frame) 
Interleave, preload duration : 136 ms 
Writing library : LAME3.90. 
Encoding settings : -m j -V 4 -q 2 -lowpass 17.6 --abr 131 
National.Geographic.Rhino.Rescue.DVDRip.XviD-VoMiT.avi  [347.17 Mb]

Post Reply

Return to “Educational”