National Geographic - Predator Battleground (2009)

For educational and documentary series, from History Channel, National Geographic, etc.
Post Reply
emoneypitt
Donator
Donator
Posts: 551
Joined: Sat Jun 16, 2007 11:11 am
Location: USA
Been thanked: 1 time

National Geographic - Predator Battleground (2009)

Post by emoneypitt » Thu Jun 10, 2010 9:54 am

National Geographic - Predator Battleground
Welcome to a predator's paradise. Botswana's mysterious Savuti Channel. Where the prey is plentiful and the pickings are easy...but the banquet is crowded. Three groups abound in this predator battleground - the lion pride, hyena clan and wild dog pack - all using the dry riverbed as a hunting ground. While the dry season plagues the elephant and antelope herds, it makes for a predators delight.

But then when heavy rains come from Angola flooding the Savuti Channel for the first time in 25 years, crocodiles seize the channel as their own. Witness the resulting unique behaviour of predator and prey alike as the dry and the wet channel forces them to react in startling ways, all in an effort to survive on the Savuti Predator Battleground.
http://natgeotv.com/uk/predator-battleground/about

Code: Select all

General 
Complete name : National.Geographic.Predator.Battleground.720p.HDTV.x264-DiCH.mkv 
Format : Matroska 
File size : 1.09 GiB 
Duration : 46mn 54s 
Overall bit rate : 3 335 Kbps 
Encoded date : UTC 2010-05-29 20:28:01 
Writing application : mkvmerge v2.9.8 ('C'est le bon') built on Aug 13 2009 12:49:06 
Writing library : libebml v0.7.7 + libmatroska v0.8.1 

Video 
ID : 1 
Format : AVC 
Format/Info : Advanced Video Codec 
Format profile : High@L3.1 
Format settings, CABAC : Yes 
Format settings, ReFrames : 3 frames 
Muxing mode : Container profile=Unknown@3.1 
Codec ID : V_MPEG4/ISO/AVC 
Duration : 46mn 54s 
Bit rate : 3 141 Kbps 
Width : 1 280 pixels 
Height : 720 pixels 
Display aspect ratio : 16:9 
Frame rate : 25.000 fps 
Resolution : 8 bits 
Colorimetry : 4:2:0 
Scan type : Progressive 
Bits/(Pixel*Frame) : 0.136 
Stream size : 1.01 GiB (92%) 
Writing library : x264 core 76 r1268 d542926 
Encoding settings : cabac=1 / ref=3 / deblock=1:1:1 / analyse=0x3:0x113 / me=hex / subme=6 / psy=1 / psy_rd=0.0:1.0 / mixed_ref=1 / me_range=16 / chroma_me=1 / trellis=1 / 8x8dct=1 / cqm=0 / deadzone=21,11 / chroma_qp_offset=-2 / threads=6 / nr=0 / decimate=1 / mbaff=0 / bframes=3 / b_pyramid=0 / b_adapt=1 / b_bias=0 / direct=1 / wpredb=1 / keyint=250 / keyint_min=25 / scenecut=40 / rc_lookahead=40 / rc=2pass / mbtree=1 / bitrate=3141 / ratetol=1.0 / qcomp=0.60 / qpmin=10 / qpmax=51 / qpstep=4 / cplxblur=20.0 / qblur=0.5 / ip_ratio=1.40 / aq=1:1.00 

Audio 
ID : 2 
Format : AC-3 
Format/Info : Audio Coding 3 
Format_Settings_ModeExtension : CM (complete main) 
Codec ID : A_AC3 
Duration : 46mn 54s 
Bit rate mode : Constant 
Bit rate : 192 Kbps 
Channel(s) : 2 channels 
Channel positions : Front: L R 
Sampling rate : 48.0 KHz 
Stream size : 64.4 MiB (6%) 
Language : Danish 
*It is English audio, not Danish as listed in code*

National.Geographic.Predator.Battleground.720p.HDTV.x264-DiCH.mkv  [1.09 Gb]

Post Reply

Return to “Educational”