National Geographic - Grizzly Cauldron (2009)

For educational and documentary series, from History Channel, National Geographic, etc.
Post Reply
emoneypitt
Donator
Donator
Posts: 551
Joined: Sat Jun 16, 2007 11:11 am
Location: USA
Been thanked: 1 time

National Geographic - Grizzly Cauldron (2009)

Post by emoneypitt » Thu Jun 10, 2010 9:42 am

National Geographic - Grizzly Cauldron
We document the two apex predators of Yellowstone - the grizzly and wolf as they once again meet head-to-head, vying to emerge on top.

Grizzlies once reigned unchallenged as the top predators of Yellowstone, but everything changed when an old rival returned to the landscape. After almost a century without them, wolves were reintroduced to Yellowstone and again play a vital role in the ecosystem that depends upon them. Once the sole rulers of this vast kingdom, grizzly bears are now re-learning how to cope with the rise of an equal competitor.
http://natgeotv.com/asia/grizzly-cauldron

Code: Select all

Complete name : National.Geographic.Grizzly.Cauldron.720p.HDTV.x264-SomeTV.mkv 
Format : Matroska 
File size : 1.09 GiB 
Duration : 46mn 58s 
Overall bit rate : 3 327 Kbps 
Encoded date : UTC 2010-05-30 21:09:49 
Writing application : mkvmerge v3.3.0 ('Language') built on Mar 24 2010 14:59:24 
Writing library : libebml v0.8.0 + libmatroska v0.9.0 

Video 
ID : 1 
Format : AVC 
Format/Info : Advanced Video Codec 
Format profile : High@L4.1 
Format settings, CABAC : Yes 
Format settings, ReFrames : 4 frames 
Muxing mode : Container profile=Unknown@4.1 
Codec ID : V_MPEG4/ISO/AVC 
Duration : 46mn 58s 
Bit rate : 3 072 Kbps 
Width : 1 280 pixels 
Height : 720 pixels 
Display aspect ratio : 16:9 
Frame rate : 25.000 fps 
Resolution : 8 bits 
Colorimetry : 4:2:0 
Scan type : Progressive 
Bits/(Pixel*Frame) : 0.133 
Stream size : 1 010 MiB (90%) 
Writing library : x264 core 93 r1542 5b86182 
Encoding settings : cabac=1 / ref=4 / deblock=1:0:0 / analyse=0x3:0x113 / me=umh / subme=7 / psy=1 / psy_rd=1.00:0.00 / mixed_ref=1 / me_range=16 / chroma_me=1 / trellis=1 / 8x8dct=1 / cqm=0 / deadzone=21,11 / fast_pskip=1 / chroma_qp_offset=-2 / threads=3 / sliced_threads=0 / nr=0 / decimate=1 / interlaced=0 / constrained_intra=0 / bframes=3 / b_pyramid=2 / b_adapt=1 / b_bias=0 / direct=1 / wpredb=1 / wpredp=2 / keyint=250 / keyint_min=25 / scenecut=40 / intra_refresh=0 / rc_lookahead=30 / rc=2pass / mbtree=1 / bitrate=3072 / ratetol=1.0 / qcomp=0.60 / qpmin=10 / qpmax=51 / qpstep=4 / cplxblur=20.0 / qblur=0.5 / ip_ratio=1.40 / aq=1:1.00 

Audio 
ID : 2 
Format : MPEG Audio 
Format version : Version 1 
Format profile : Layer 2 
Codec ID : A_MPEG/L2 
Codec ID/Hint : MP2 
Duration : 46mn 58s 
Bit rate mode : Constant 
Bit rate : 256 Kbps 
Channel(s) : 2 channels 
Sampling rate : 48.0 KHz 
Video delay : 1ms 
Stream size : 86.0 MiB (8%) 
Title : Swedish 
Language : Swedish 
*MediaInfo once again giving me Swedish audio LOL. It is English.

National.Geographic.Grizzly.Cauldron.720p.HDTV.x264-SomeTV.mkv  [1.09 Gb]

Post Reply

Return to “Educational”