The.Cry.Baby.Killer.(1958).FS.DVDRip.XviD-servesita

The switch to colour was a gradual process mostly taking place from the 1930s to the 1950s. This section contains any movie which is completely in black and white from old classics to newer ones such as Schindler's List.
Post Reply
Andrei
Registered user
Registered user
Posts: 5579
Joined: Fri Sep 21, 2007 6:01 pm
Been thanked: 94 times

The.Cry.Baby.Killer.(1958).FS.DVDRip.XviD-servesita

Post by Andrei »

Image



Image
ImageImageImageImage
He was young. 8-)
The.Cry.Baby.Killer.(1958).FS.DVDRip.XviD-servesita.avi  [618.25 Mb]

Code: Select all

General
Complete name                    : D:\eMule\The.Cry.Baby.Killer.(1958).FS.DVDRip.XviD-servesita.avi
Format                           : AVI
Format/Info                      : Audio Video Interleave
File size                        : 618 MiB
Duration                         : 1h 0mn
Overall bit rate                 : 1 418 Kbps

Video
ID                               : 0
Format                           : MPEG-4 Visual
Format profile                   : Simple@L3
Format settings, BVOP            : No
Format settings, QPel            : No
Format settings, GMC             : No warppoints
Format settings, Matrix          : Default (H.263)
Codec ID                         : XviD
Codec ID/Hint                    : XviD
Duration                         : 1h 0mn
Bit rate                         : 1 277 Kbps
Width                            : 640 pixels
Height                           : 480 pixels
Display aspect ratio             : 4:3
Frame rate                       : 23.976 fps
Resolution                       : 8 bits
Colorimetry                      : 4:2:0
Scan type                        : Progressive
Bits/(Pixel*Frame)               : 0.173
Stream size                      : 557 MiB (90%)
Writing library                  : XviD 1.1.0 (UTC 2005-11-22)

Audio
ID                               : 1
Format                           : MPEG Audio
Format version                   : Version 1
Format profile                   : Layer 3
Codec ID                         : 55
Codec ID/Hint                    : MP3
Duration                         : 1h 0mn
Bit rate mode                    : Constant
Bit rate                         : 128 Kbps
Channel(s)                       : 2 channels
Sampling rate                    : 48.0 KHz
Video delay                      : 3s 72ms
Stream size                      : 55.8 MiB (9%)
Alignment                        : Split accross interleaves
Interleave, duration             : 24 ms (0.58 video frame)
Writing library                  : LAME3.97 (beta)

Post Reply

Return to “Black & White”