National.Geographic.Vampires.(2009).HDTV.XviD-PVR

For educational and documentary series, from History Channel, National Geographic, etc.
Post Reply
theskyishigh
Registered user
Registered user
Posts: 45
Joined: Wed Dec 10, 2008 10:46 pm

National.Geographic.Vampires.(2009).HDTV.XviD-PVR

Post by theskyishigh » Thu Nov 26, 2009 12:14 pm

Is It Real: Vampires (National Geographic)

Homepage - TV.com
With the 1897 publication of Bram Stoker's novel Dracula, vampires entered mainstream consciousness. Prior to that, however, these supposedly undead blood-drinkers had been alive in folklore. For centuries, frightened people have been digging up their dead and destroying their hearts in an effort to kill these creatures. In fact, this activity still persists in modern-day Romania. But, is there a legitimate medical condition that could explain a person's need to consume human blood? Don Henrie, a man who identifies as a vampire, agrees to medical tests to see if doctors can pinpoint a physical reason for his blood need.

Code: Select all

General
Format                           : AVI
Format/Info                      : Audio Video Interleave
File size                        : 350 MiB
Duration                         : 46mn 55s
Overall bit rate                 : 1 042 Kbps
Writing application              : VirtualDubMod 1.5.10.2 (build 2540/release)
Writing library                  : VirtualDubMod build 2540/release

Video
ID                               : 0
Format                           : MPEG-4 Visual
Format profile                   : AdvancedSimple@L5
Format settings, BVOP            : Yes
Format settings, QPel            : No
Format settings, GMC             : No warppoints
Format settings, Matrix          : Default (H.263)
Codec ID                         : XviD
Codec ID/Hint                    : XviD
Duration                         : 46mn 55s
Bit rate                         : 903 Kbps
Width                            : 608 pixels
Height                           : 336 pixels
Display aspect ratio             : 16:9
Frame rate                       : 25.000 fps
Resolution                       : 24 bits
Colorimetry                      : 4:2:0
Scan type                        : Progressive
Bits/(Pixel*Frame)               : 0.177
Stream size                      : 303 MiB (87%)
Writing library                  : XviD 1.2.1 (UTC 2008-12-04)

Audio
ID                               : 1
Format                           : MPEG Audio
Format version                   : Version 1
Format profile                   : Layer 3
Format settings, Mode            : Joint stereo / MS Stereo
Codec ID                         : 55
Codec ID/Hint                    : MP3
Duration                         : 46mn 55s
Bit rate mode                    : Variable
Bit rate                         : 126 Kbps
Nominal bit rate                 : 130 Kbps
Channel(s)                       : 2 channels
Sampling rate                    : 48.0 KHz
Resolution                       : 16 bits
Stream size                      : 42.2 MiB (12%)
Alignment                        : Aligned on interleaves
Interleave, duration             : 24 ms (0.60 video frame)
Interleave, preload duration     : 549 ms
Writing library                  : LAME3.98 
Encoding settings                : -m j -V 4 -q 3 -lowpass 17 --abr 130
Image
ImageImageImageImage

eD2K Link: National.Geographic.Vampires.(2009).HDTV.XviD-PVR.avi  [349.74 Mb]

danyd
Registered user
Registered user
Posts: 65
Joined: Thu Dec 11, 2008 5:35 pm

Re: National.Geographic.Vampires.(2009).HDTV.XviD-PVR

Post by danyd » Thu Nov 26, 2009 2:25 pm

this seems interesting thanks 8-)

emoneypitt
Donator
Donator
Posts: 551
Joined: Sat Jun 16, 2007 11:11 am
Location: USA
Been thanked: 1 time

Re: National.Geographic.Vampires.(2009).HDTV.XviD-PVR

Post by emoneypitt » Fri Nov 27, 2009 9:39 am

Thanks

cookster
Registered user
Registered user
Posts: 179
Joined: Mon Dec 03, 2007 10:00 pm
Location: newport south wales

Re: National.Geographic.Vampires.(2009).HDTV.XviD-PVR

Post by cookster » Fri Nov 27, 2009 10:05 am

Thanks

Dany Bhoy
Donator
Donator
Posts: 85
Joined: Mon Feb 27, 2006 6:20 am

Re: National.Geographic.Vampires.(2009).HDTV.XviD-PVR

Post by Dany Bhoy » Fri Nov 27, 2009 12:13 pm

Thanks

Post Reply

Return to “Educational”