Calle.Santa.Fe.(aka.Rue.Santa.Fe).(2007).DVDRip.XviD-CLAN-SUD

For educational and documentary series, from History Channel, National Geographic, etc.
Post Reply
Andrei
Registered user
Registered user
Posts: 5593
Joined: Fri Sep 21, 2007 6:01 pm
Been thanked: 46 times

Calle.Santa.Fe.(aka.Rue.Santa.Fe).(2007).DVDRip.XviD-CLAN-SUD

Post by Andrei » Tue Sep 16, 2008 2:44 pm

Image



Code: Select all

General
Complete name                    : Calle.Santa.Fe.2007.DVD-Rip.Mp3.CLAN-SUD.CD1.avi
Format                           : AVI
Format/Info                      : Audio Video Interleave
File size                        : 701 MiB
Duration                         : 1h 22mn
Overall bit rate                 : 1 193 Kbps
Writing application              : VirtualDubMod 1.5.10.2 (build 2540/release)
Writing library                  : VirtualDubMod build 2540/release
segm                             : 

Video
Format                           : MPEG-4 Visual
Format profile                   : Streaming Video@L1
Format settings, BVOP            : Yes
Format settings, QPel            : No
Format settings, GMC             : No warppoints
Format settings, Matrix          : Default
Codec ID                         : XviD
Codec ID/Hint                    : XviD
Duration                         : 1h 22mn
Bit rate                         : 1 087 Kbps
Width                            : 512 pixels
Height                           : 304 pixels
Display aspect ratio             : 1.684
Frame rate                       : 23.976 fps
Resolution                       : 24 bits
Colorimetry                      : 4:2:0
Scan type                        : Progressive
Bits/(Pixel*Frame)               : 0.291
Stream size                      : 639 MiB (91%)
Writing library                  : XviD 1.1.2 (UTC 2006-11-01)

Audio
Format                           : MPEG Audio
Format version                   : Version 1
Format profile                   : Layer 3
Codec ID                         : 55
Codec ID/Hint                    : MP3
Duration                         : 1h 22mn
Bit rate mode                    : Constant
Bit rate                         : 96.0 Kbps
Channel(s)                       : 2 channels
Sampling rate                    : 44.1 KHz
Resolution                       : 16 bits
Stream size                      : 56.4 MiB (8%)
Alignment                        : Split accross interleaves
Interleave, duration             : 42 ms (1.00 video frame)
Interleave, preload duration     : 500 ms

Code: Select all

General
Complete name                    : Calle.Santa.Fe.2007.DVD-Rip.Mp3.CLAN-SUD.CD2.avi
Format                           : AVI
Format/Info                      : Audio Video Interleave
File size                        : 698 MiB
Duration                         : 1h 22mn
Overall bit rate                 : 1 184 Kbps
Writing application              : VirtualDubMod 1.5.10.2 (build 2540/release)
Writing library                  : VirtualDubMod build 2540/release

Video
Format                           : MPEG-4 Visual
Format profile                   : Streaming Video@L1
Format settings, BVOP            : Yes
Format settings, QPel            : No
Format settings, GMC             : No warppoints
Format settings, Matrix          : Default
Codec ID                         : XviD
Codec ID/Hint                    : XviD
Duration                         : 1h 22mn
Bit rate                         : 1 079 Kbps
Width                            : 512 pixels
Height                           : 304 pixels
Display aspect ratio             : 1.684
Frame rate                       : 23.976 fps
Resolution                       : 24 bits
Colorimetry                      : 4:2:0
Scan type                        : Progressive
Bits/(Pixel*Frame)               : 0.289
Stream size                      : 636 MiB (91%)
Writing library                  : XviD 1.1.2 (UTC 2006-11-01)

Audio
Format                           : MPEG Audio
Format version                   : Version 1
Format profile                   : Layer 3
Codec ID                         : 55
Codec ID/Hint                    : MP3
Duration                         : 1h 22mn
Bit rate mode                    : Constant
Bit rate                         : 96.0 Kbps
Channel(s)                       : 2 channels
Sampling rate                    : 44.1 KHz
Resolution                       : 16 bits
Video delay                      : 16ms
Stream size                      : 56.6 MiB (8%)
Alignment                        : Split accross interleaves
Interleave, duration             : 42 ms (1.00 video frame)
Interleave, preload duration     : 500 ms
Calle.Santa.Fe.2007.DVD-Rip.Mp3.CLAN-SUD.CD1.avi  [700.65 Mb]
Calle.Santa.Fe.2007.DVD-Rip.Mp3.CLAN-SUD.CD2.avi  [697.63 Mb]

Image
Image
Image
Image
Image

[ Add all 2 links to your ed2k client ]

manikbr
Registered user
Registered user
Posts: 208
Joined: Wed Nov 01, 2006 8:32 pm

Post by manikbr » Tue Sep 16, 2008 9:07 pm

Wow, seems to be a excellent movie. Thanks Andrei.

Post Reply

Return to “Educational”