BBC.Hiroshima.(2005).DVDRip.XviD-NewMov

For educational and documentary series, from History Channel, National Geographic, etc.
Post Reply
Zewarrior
Registered user
Registered user
Posts: 557
Joined: Sat Oct 04, 2003 2:05 pm
Been thanked: 5 times

BBC.Hiroshima.(2005).DVDRip.XviD-NewMov

Post by Zewarrior » Wed Sep 03, 2008 7:03 pm

Hiroshima.2005.DVDRip.XviD-NewMov

Image

IMDb
User Rating: 8.6/10 (187 votes)

AMAZON
Documentary with dramatic reenactments with actors to describe what dropping the bomb on Hiroshima was like.

Code: Select all

File size                        : 699 MiB
Duration                         : 1h 29mn
Overall bit rate                 : 1097 Kbps

Video
Format                           : MPEG-4 Visual
Format profile                   : Streaming Video@L1
Format settings, BVOP            : Yes
Format settings, QPel            : Yes
Format settings, GMC             : No warppoints
Format settings, Matrix          : Custom
Codec ID                         : XviD
Codec ID/Hint                    : XviD
Duration                         : 1h 29mn
Bit rate                         : 953 Kbps
Width                            : 608 pixels
Height                           : 336 pixels
Display aspect ratio             : 16/9
Frame rate                       : 29.970 fps
Resolution                       : 8 bits
Colorimetry                      : 4:2:0
Scan type                        : Progressive
Bits/(Pixel*Frame)               : 0.156
Stream size                      : 607 MiB (87%)
Writing library                  : XviD 1.0.3 (UTC 2004-12-20)

Audio
Format                           : MPEG Audio
Format version                   : Version 1
Format profile                   : Layer 3
Codec ID                         : 55
Codec ID/Hint                    : MP3
Duration                         : 1h 29mn
Bit rate mode                    : Variable
Bit rate                         : 130 Kbps
Minimum bit rate                 : 128 Kbps
Channel(s)                       : 2 channels
Sampling rate                    : 48.0 KHz
Resolution                       : 16 bits
Stream size                      : 82.8 MiB (12%)
Alignment                        : Aligned on interleaves
Interleave, duration             : 24 ms (0.72 video frame)
Interleave, preload duration     : 496 ms
Writing library                  : LAME3.96r
Encoding settings                : ABR
Image Image Image Image Image

Hiroshima.2005.STV.DVDRip.XviD-NewMov.avi  [698.62 Mb]

Post Reply

Return to “Educational”