The.Crimson.Kimono.(1959).DVDRip.x264

The switch to colour was a gradual process mostly taking place from the 1930s to the 1950s. This section contains any movie which is completely in black and white from old classics to newer ones such as Schindler's List.
Post Reply
Andrei
Registered user
Registered user
Posts: 8172
Joined: Fri Sep 21, 2007 6:01 pm
Been thanked: 5 times

The.Crimson.Kimono.(1959).DVDRip.x264

Post by Andrei » Tue Jan 18, 2011 12:33 am

The Crimson Kimono (Samuel Fuller, 1959)

Image
Image


Code: Select all

Resolution: 718 x 460
Frame aspect ratio: 359:230 = 1.560869
Pixel aspect ratio: 425:359 = 1.183844
Display aspect ratio: 85:46 = 1.847826 (~1.85:1)

Code: Select all

"C:\x264.exe" --preset slower --tune film --crf 18.8 --no-chroma-me --stats "C:\mi_ripeo.stats" --level 4.1 --output "C:\mi_ripeo.mkv" "C:\mi_script.avs" --sar 32:27
Image
Image
Image
Image
Image

Code: Select all

Format : Matroska 
File size : 1.15 GiB 
Duration : 1h 21mn 
Overall bit rate : 2 024 Kbps 
Encoded date : UTC 2011-01-13 19:21:48 
Writing application : mkvmerge v3.2.0 ('Beginnings') built on Feb 12 2010 16:46:17 
Writing library : libebml v0.7.9 + libmatroska v0.8.1 

Video 
ID : 1 
Format : AVC 
Format/Info : Advanced Video Codec 
Format profile : High@L4.1 
Format settings, CABAC : Yes 
Format settings, ReFrames : 8 frames 
Codec ID : V_MPEG4/ISO/AVC 
Duration : 1h 21mn 
Bit rate : 1 856 Kbps 
Width : 718 pixels 
Height : 460 pixels 
Display aspect ratio : 16:9 
Original display aspect ratio : 1.850 
Frame rate : 23.976 fps 
Color space : YUV 
Chroma subsampling : 4:2:0 
Bit depth : 8 bits 
Scan type : Progressive 
Bits/(Pixel*Frame) : 0.234 
Stream size : 1.06 GiB (92%) 
Writing library : x264 core 112 r1867 22bfd31 
Encoding settings : cabac=1 / ref=8 / deblock=1:-1:-1 / analyse=0x3:0x133 / me=umh / subme=9 / psy=1 / psy_rd=1.00:0.15 / mixed_ref=1 / me_range=16 / chroma_me=0 / trellis=2 / 8x8dct=1 / cqm=0 / deadzone=21,11 / fast_pskip=1 / chroma_qp_offset=-3 / threads=3 / sliced_threads=0 / nr=0 / decimate=1 / interlaced=0 / constrained_intra=0 / bframes=3 / b_pyramid=2 / b_adapt=2 / b_bias=0 / direct=3 / weightb=1 / open_gop=0 / weightp=2 / keyint=250 / keyint_min=23 / scenecut=40 / intra_refresh=0 / rc_lookahead=60 / rc=crf / mbtree=1 / crf=18.8 / qcomp=0.60 / qpmin=0 / qpmax=51 / qpstep=4 / ip_ratio=1.40 / aq=1:1.00 
Language : English 

Audio 
ID : 2 
Format : MPEG Audio 
Format version : Version 1 
Format profile : Layer 3 
Codec ID : A_MPEG/L3 
Codec ID/Hint : MP3 
Duration : 1h 21mn 
Bit rate mode : Constant 
Bit rate : 128 Kbps 
Channel(s) : 2 channels 
Sampling rate : 48.0 KHz 
Stream size : 74.6 MiB (6%) 
Language : English 

Text #1 
ID : 3 
Format : UTF-8 
Codec ID : S_TEXT/UTF8 
Codec ID/Info : UTF-8 Plain Text 
Language : Spanish 

Text #2 
ID : 4 
Format : UTF-8 
Codec ID : S_TEXT/UTF8 
Codec ID/Info : UTF-8 Plain Text 
Language : English

The.Crimson.Kimono.1959.DVDRip.x264.mkv  [1.15 Gb]
Thanks to roisiano!

angel_punx
Registered user
Registered user
Posts: 363
Joined: Sun Sep 26, 2010 2:24 am
Location: UK

Re: The.Crimson.Kimono.(1959).DVDRip.x264

Post by angel_punx » Thu Aug 23, 2012 7:40 pm

Thanks :D

Post Reply

Return to “Black & White”