A.Bad.Moms.Christmas.(aka.Bad.Moms.2).(2017).WEBRip.XviD-FGT

Movies in one of the following formats: DVD/VHS Screener (DVDScr/VHSScr; essentially pre-released, less-mastered DVDRips/VHSRips; can be clean or have watermarks such as 'Property of' messages, and black & white scenes), Workprint (WP), R5 DVD rip (R5.DVDRip; video encoded from a Russian retail DVD, while Russian audio usually replaced with cinema quality English audio), PDVD rip (PDVDRip; normally well-mastered TCs), VHS rip (VHSRip), and television source encodes (HDTV, DCCap, SatRip, DSR, TVRip).
Post Reply
bjorn j
Donator
Donator
Posts: 2792
Joined: Wed Jan 07, 2009 1:49 pm
Has thanked: 44 times
Been thanked: 6534 times

A.Bad.Moms.Christmas.(aka.Bad.Moms.2).(2017).WEBRip.XviD-FGT

Post by bjorn j » Tue Jan 09, 2018 12:38 am

Image

http://www.IMDb.com/title/tt6359956/
Genres: Adventure, Comedy

As their own mothers drop in unexpectedly, our three under-appreciated and over-burdened moms rebel against the challenges and expectations of the Super Bowl for mothers: Christmas.

Code: Select all

Video
ID                                       : 0
Format                                   : MPEG-4 Visual
Format profile                           : Simple@L5
Format settings, BVOP                    : No
Format settings, QPel                    : No
Format settings, GMC                     : No warppoints
Format settings, Matrix                  : Default (H.263)
Codec ID                                 : XviD
Codec ID/Hint                            : XviD
Duration                                 : 1 h 44 min
Bit rate                                 : 1 594 kb/s
Width                                    : 720 pixels
Height                                   : 304 pixels
Display aspect ratio                     : 2.40:1
Frame rate                               : 23.976 (24000/1001) FPS
Color space                              : YUV
Chroma subsampling                       : 4:2:0
Bit depth                                : 8 bits
Scan type                                : Progressive
Compression mode                         : Lossy
Bits/(Pixel*Frame)                       : 0.304
Stream size                              : 1.16 GiB (89%)
Writing library                          : Lavc58.1.100

Audio
ID                                       : 1
Format                                   : MPEG Audio
Format version                           : Version 1
Format profile                           : Layer 3
Format settings                          : Joint stereo / MS Stereo
Codec ID                                 : 55
Codec ID/Hint                            : MP3
Duration                                 : 1 h 44 min
Bit rate mode                            : Constant
Bit rate                                 : 192 kb/s
Channel(s)                               : 2 channels
Sampling rate                            : 48.0 kHz
Compression mode                         : Lossy
Stream size                              : 143 MiB (11%)
Alignment                                : Aligned on interleaves
Interleave, duration                     : 24  ms (0.58 video frame)
Interleave, preload duration             : 504  ms
Image
Image
Image
Image

A.Bad.Moms.Christmas.2017.WEB-DL.XviD-FGT.avi  [1.31 Gb]

Post Reply

Return to “Non-Retail (DVDScr, WP, R5, PDVD, VHS, LD, HDTV, TV)”