Project.Eden.Vol.I.(2017).HDRip.AC3.x264-Manning

Movies in one of the following formats: DVD/VHS Screener (DVDScr/VHSScr; essentially pre-released, less-mastered DVDRips/VHSRips; can be clean or have watermarks such as 'Property of' messages, and black & white scenes), Workprint (WP), R5 DVD rip (R5.DVDRip; video encoded from a Russian retail DVD, while Russian audio usually replaced with cinema quality English audio), PDVD rip (PDVDRip; normally well-mastered TCs), VHS rip (VHSRip), and television source encodes (HDTV, DCCap, SatRip, DSR, TVRip).
Post Reply
bjorn j
Donator
Donator
Posts: 2708
Joined: Wed Jan 07, 2009 1:49 pm
Has thanked: 34 times
Been thanked: 6054 times

Project.Eden.Vol.I.(2017).HDRip.AC3.x264-Manning

Post by bjorn j » Fri Jan 05, 2018 11:41 pm

Image

http://www.IMDb.com/title/tt4542726/
Genres: Mystery, Sci-Fi, Thriller

Project Eden is the first volume in a planned two-part duology. It is the brainchild of Australian Writers/Directors Ashlee Jensen & Terrance M. Young.

Aided by an ex-military officer, a young woman becomes an unwitting fugitive after discovering that her son's catatonic state may be at the heart of a global conspiracy.

Code: Select all

Video
ID                                       : 2
Format                                   : AVC
Format/Info                              : Advanced Video Codec
Format profile                           : High@L4.1
Format settings                          : CABAC / 4 Ref Frames
Format settings, CABAC                   : Yes
Format settings, RefFrames               : 4 frames
Codec ID                                 : V_MPEG4/ISO/AVC
Duration                                 : 1 h 34 min
Bit rate                                 : 1 700 kb/s
Width                                    : 720 pixels
Height                                   : 304 pixels
Display aspect ratio                     : 2.35:1
Frame rate mode                          : Constant
Frame rate                               : 24.000 FPS
Color space                              : YUV
Chroma subsampling                       : 4:2:0
Bit depth                                : 8 bits
Scan type                                : Progressive
Bits/(Pixel*Frame)                       : 0.324
Stream size                              : 1.10 GiB (81%)
Writing library                          : x264 core 148 r2708 86b7198
Default                                  : Yes
Forced                                   : No
Color range                              : Limited
Color primaries                          : BT.709
Transfer characteristics                 : BT.709
Matrix coefficients                      : BT.709

Audio
ID                                       : 1
Format                                   : AC-3
Format/Info                              : Audio Coding 3
Codec ID                                 : A_AC3
Duration                                 : 1 h 34 min
Bit rate mode                            : Constant
Bit rate                                 : 384 kb/s
Channel(s)                               : 6 channels
Channel positions                        : Front: L C R, Side: L R, LFE
Sampling rate                            : 48.0 kHz
Frame rate                               : 31.250 FPS (1536 SPF)
Bit depth                                : 16 bits
Compression mode                         : Lossy
Stream size                              : 261 MiB (19%)
Language                                 : English
Service kind                             : Complete Main
Default                                  : Yes
Forced                                   : No

Menu
00:00:00.000                             : :Chapter 1
00:19:57.458                             : :Chapter 2
00:39:26.917                             : :Chapter 3
00:58:16.250                             : :Chapter 4
01:12:04.083                             : :Chapter 5
01:31:12.708                             : :Chapter 6
Image
Image
Image

Project.Eden.Vol.I.2017.HDRip.x264.AC3-Manning.mkv  [1.35 Gb]

Post Reply

Return to “Non-Retail (DVDScr, WP, R5, PDVD, VHS, LD, HDTV, TV)”