The.Light.Of.The.Moon.(2017).WEBRip.XviD-FGT

Movies in one of the following formats: DVD/VHS Screener (DVDScr/VHSScr; essentially pre-released, less-mastered DVDRips/VHSRips; can be clean or have watermarks such as 'Property of' messages, and black & white scenes), Workprint (WP), R5 DVD rip (R5.DVDRip; video encoded from a Russian retail DVD, while Russian audio usually replaced with cinema quality English audio), PDVD rip (PDVDRip; normally well-mastered TCs), VHS rip (VHSRip), and television source encodes (HDTV, DCCap, SatRip, DSR, TVRip).
Post Reply
bjorn j
Donator
Donator
Posts: 2720
Joined: Wed Jan 07, 2009 1:49 pm
Has thanked: 34 times
Been thanked: 6100 times

The.Light.Of.The.Moon.(2017).WEBRip.XviD-FGT

Post by bjorn j » Wed Jan 03, 2018 12:44 pm

Image

http://www.IMDb.com/title/tt5047336/
Genre: Drama

After her world is irrevocably changed, a successful New York City architect struggles to regain intimacy and control in her life.

Bonnie, a young and successful Latina architect, is sexually assaulted while walking home from an evening out with friends in Brooklyn. At first, she attempts to keep the assault a secret from her long-term boyfriend Matt, but the truth quickly emerges. Bonnie emphatically denies the impact of what has just happened to her. She fights to regain normalcy and control of her life, but returning to her old life is more complicated than expected. Her attempt to recapture the intimacy she previously had with Matt falters and cracks begin to surface in their relationship. Another attack in the neighborhood only drives Bonnie further into denial, before an encounter with an at-risk woman causes her to face the truth and confront her own self-blame.

Code: Select all

Video
ID                                       : 0
Format                                   : MPEG-4 Visual
Format profile                           : Simple@L5
Format settings, BVOP                    : No
Format settings, QPel                    : No
Format settings, GMC                     : No warppoints
Format settings, Matrix                  : Default (H.263)
Codec ID                                 : XviD
Codec ID/Hint                            : XviD
Duration                                 : 1 h 34 min
Bit rate                                 : 1 933 kb/s
Width                                    : 720 pixels
Height                                   : 304 pixels
Display aspect ratio                     : 2.40:1
Frame rate                               : 23.976 (24000/1001) FPS
Color space                              : YUV
Chroma subsampling                       : 4:2:0
Bit depth                                : 8 bits
Scan type                                : Progressive
Compression mode                         : Lossy
Bits/(Pixel*Frame)                       : 0.368
Stream size                              : 1.28 GiB (90%)
Writing library                          : Lavc58.1.100

Audio
ID                                       : 1
Format                                   : MPEG Audio
Format version                           : Version 1
Format profile                           : Layer 3
Format settings                          : Joint stereo / MS Stereo
Codec ID                                 : 55
Codec ID/Hint                            : MP3
Duration                                 : 1 h 34 min
Bit rate mode                            : Constant
Bit rate                                 : 192 kb/s
Channel(s)                               : 2 channels
Sampling rate                            : 48.0 kHz
Compression mode                         : Lossy
Stream size                              : 130 MiB (9%)
Alignment                                : Aligned on interleaves
Interleave, duration                     : 24  ms (0.58 video frame)
Interleave, preload duration             : 504  ms
Writing library                          : LAMEÿÿÿæVa¡  ÂÀ 
Image
Image
Image

The.Light.Of.The.Moon.2017.WEB-DL.XviD-FGT.avi  [1.41 Gb]

Post Reply

Return to “Non-Retail (DVDScr, WP, R5, PDVD, VHS, LD, HDTV, TV)”