In.The.Absence.Of.Good.Men.(2017).WEBRip.AC3.XviD-FGT

Movies in one of the following formats: DVD/VHS Screener (DVDScr/VHSScr; essentially pre-released, less-mastered DVDRips/VHSRips; can be clean or have watermarks such as 'Property of' messages, and black & white scenes), Workprint (WP), R5 DVD rip (R5.DVDRip; video encoded from a Russian retail DVD, while Russian audio usually replaced with cinema quality English audio), PDVD rip (PDVDRip; normally well-mastered TCs), VHS rip (VHSRip), and television source encodes (HDTV, DCCap, SatRip, DSR, TVRip).
Post Reply
bjorn j
Donator
Donator
Posts: 2705
Joined: Wed Jan 07, 2009 1:49 pm
Has thanked: 34 times
Been thanked: 6039 times

In.The.Absence.Of.Good.Men.(2017).WEBRip.AC3.XviD-FGT

Post by bjorn j » Sat Dec 02, 2017 1:14 am

Image

http://www.IMDb.com/title/tt7241654/
Genres: Crime, Drama

The story of America's most famous mobsters and their rise to power, GANGSTER LAND examines Al Capone's ascension through the eyes of his second in command, "Machine Gun" Jack McGurn (Faris). Once an amateur boxer, McGurn is lured into the Italian mafia after the murder of his step-father. Upon joining, he rises swiftly through the ranks along with friend and eventual Boss, Capone (Gibson). As the Italian mob becomes the most lucrative criminal organization in the country, tensions build with "Bugs" Moran (Facinelli) and the Irish mob which ignites a brutal gang war culminating with the St. Valentine's Day Massacre.

Code: Select all

Video
ID                                       : 0
Format                                   : MPEG-4 Visual
Format profile                           : Simple@L5
Format settings, BVOP                    : No
Format settings, QPel                    : No
Format settings, GMC                     : No warppoints
Format settings, Matrix                  : Default (H.263)
Codec ID                                 : XviD
Codec ID/Hint                            : XviD
Duration                                 : 1h 28mn
Bit rate                                 : 1 327 Kbps
Width                                    : 720 pixels
Height                                   : 304 pixels
Display aspect ratio                     : 2.40:1
Frame rate                               : 23.976 fps
Color space                              : YUV
Chroma subsampling                       : 4:2:0
Bit depth                                : 8 bits
Scan type                                : Progressive
Compression mode                         : Lossy
Bits/(Pixel*Frame)                       : 0.253
Stream size                              : 836 MiB (77%)
Writing library                          : Lavc58.1.100

Audio
ID                                       : 1
Format                                   : AC-3
Format/Info                              : Audio Coding 3
Mode extension                           : CM (complete main)
Format settings, Endianness              : Big
Codec ID                                 : 2000
Duration                                 : 1h 28mn
Bit rate mode                            : Constant
Bit rate                                 : 384 Kbps
Channel(s)                               : 6 channels
Channel positions                        : Front: L C R, Side: L R, LFE
Sampling rate                            : 48.0 KHz
Bit depth                                : 16 bits
Compression mode                         : Lossy
Stream size                              : 242 MiB (22%)
Alignment                                : Aligned on interleaves
Interleave, duration                     : 42 ms (1.00 video frame)
Interleave, preload duration             : 512 ms
Image
Image
Image

Gangster.Land.2017.WEB-DL.XviD.AC3-FGT.avi  [1.06 Gb]

Post Reply

Return to “Non-Retail (DVDScr, WP, R5, PDVD, VHS, LD, HDTV, TV)”