The.Tribes.Of.Palos.Verdes.(2017).WEBRip.AC3.XviD-FGT

Movies in one of the following formats: DVD/VHS Screener (DVDScr/VHSScr; essentially pre-released, less-mastered DVDRips/VHSRips; can be clean or have watermarks such as 'Property of' messages, and black & white scenes), Workprint (WP), R5 DVD rip (R5.DVDRip; video encoded from a Russian retail DVD, while Russian audio usually replaced with cinema quality English audio), PDVD rip (PDVDRip; normally well-mastered TCs), VHS rip (VHSRip), LaserDisc capture (LDCap), and television source encodes (HDTV, DCCap, SatRip, DSR, TVRip).
Post Reply
bjorn j
Donator
Donator
Posts: 2795
Joined: Wed Jan 07, 2009 1:49 pm
Has thanked: 27 times
Been thanked: 5596 times

The.Tribes.Of.Palos.Verdes.(2017).WEBRip.AC3.XviD-FGT

Post by bjorn j » Sat Dec 02, 2017 1:08 am

Image

http://www.IMDb.com/title/tt1507571/
Genre: Drama

When the situation at her idyllic Palos Verdes home turns volatile, young Medina attempts to surf her way to happiness.

When teenage Medina (Maika Monroe) moves with her family to the picture-postcard perfect paradise of Palos Verdes, California, they seem headed for a happy new chapter in their lives. But old troubles soon catch up to them, as Medina's parents' marriage disintegrates, her mother (Jennifer Garner) spirals into an emotional freefall, and her twin brother (Cody Fern) turns to drugs. Caught in the middle of it all, Medina must rely on her inner strength to become the stabilizing force in her family, while finding refuge in a new passion: surfing. Set amidst the sun-kissed beaches and crystal blue waters of the California coast, The Tribes of Palos Verdes is a stirring look at how life's greatest challenges forge who we become.

Code: Select all

Video
ID                                       : 0
Format                                   : MPEG-4 Visual
Format profile                           : Simple@L5
Format settings, BVOP                    : No
Format settings, QPel                    : No
Format settings, GMC                     : No warppoints
Format settings, Matrix                  : Default (H.263)
Codec ID                                 : XviD
Codec ID/Hint                            : XviD
Duration                                 : 1h 43mn
Bit rate                                 : 1 350 Kbps
Width                                    : 720 pixels
Height                                   : 304 pixels
Display aspect ratio                     : 2.40:1
Frame rate                               : 23.976 fps
Color space                              : YUV
Chroma subsampling                       : 4:2:0
Bit depth                                : 8 bits
Scan type                                : Progressive
Compression mode                         : Lossy
Bits/(Pixel*Frame)                       : 0.257
Stream size                              : 999 MiB (77%)
Writing library                          : Lavc58.1.100

Audio
ID                                       : 1
Format                                   : AC-3
Format/Info                              : Audio Coding 3
Mode extension                           : CM (complete main)
Format settings, Endianness              : Big
Codec ID                                 : 2000
Duration                                 : 1h 43mn
Bit rate mode                            : Constant
Bit rate                                 : 384 Kbps
Channel(s)                               : 6 channels
Channel positions                        : Front: L C R, Side: L R, LFE
Sampling rate                            : 48.0 KHz
Bit depth                                : 16 bits
Compression mode                         : Lossy
Stream size                              : 284 MiB (22%)
Alignment                                : Aligned on interleaves
Interleave, duration                     : 42 ms (1.00 video frame)
Interleave, preload duration             : 512 ms
Image
Image
Image

The.Tribes.Of.Palos.Verdes.2017.WEB-DL.XviD.AC3-FGT.avi  [1.26 Gb]

Post Reply

Return to “Non-Retail (DVDScr, WP, R5, PDVD, VHS, LD, HDTV, TV)”