Smartass.(2017).HDRip.AC3.XviD-EVO

Movies in one of the following formats: DVD/VHS Screener (DVDScr/VHSScr; essentially pre-released, less-mastered DVDRips/VHSRips; can be clean or have watermarks such as 'Property of' messages, and black & white scenes), Workprint (WP), R5 DVD rip (R5.DVDRip; video encoded from a Russian retail DVD, while Russian audio usually replaced with cinema quality English audio), PDVD rip (PDVDRip; normally well-mastered TCs), VHS rip (VHSRip), LaserDisc capture (LDCap), and television source encodes (HDTV, DCCap, SatRip, DSR, TVRip).
Post Reply
bjorn j
Donator
Donator
Posts: 3146
Joined: Wed Jan 07, 2009 1:49 pm
Has thanked: 24 times
Been thanked: 3930 times

Smartass.(2017).HDRip.AC3.XviD-EVO

Post by bjorn j » Wed Sep 13, 2017 2:20 pm

Image

http://www.IMDb.com/title/tt4513538/
Genres: Comedy, Drama, Horror

A 15 year old girl becomes intimately acquainted to a town in California after being released from prison.

“Based on true events (mostly), Freddie (Joey King), a 15-year-old runaway becomes intimately acquainted with California’s ‘murder city’ after being released from jail, just shy of midnight. Absurdly self-reliant, completely broke and 120 miles away from her friends she has nothing to depend on but her wit and youthful charm.
Simultaneously, Lobo (Octavio Pizano), a drug-dealing murderer is granted a 24-hour stay, to raise funds for his in-prison protection from the black population who want him dead.
While Freddie cleverly hustles crack-dealing corner boys, pimp-murdering hookers and midnight creepers she learns more about herself and her aspirations, which are both threatened when Freddie reunites with friends only to find herself dangerously involved in Lobo’s survival plan.”

Code: Select all

Video
ID                                       : 0
Format                                   : MPEG-4 Visual
Format profile                           : Advanced Simple@L5
Format settings, BVOP                    : 2
Format settings, QPel                    : No
Format settings, GMC                     : No warppoints
Format settings, Matrix                  : Default (H.263)
Muxing mode                              : Packed bitstream
Codec ID                                 : XviD
Codec ID/Hint                            : XviD
Duration                                 : 1h 30mn
Bit rate                                 : 1 804 Kbps
Width                                    : 720 pixels
Height                                   : 304 pixels
Display aspect ratio                     : 2.35:1
Frame rate                               : 24.000 fps
Color space                              : YUV
Chroma subsampling                       : 4:2:0
Bit depth                                : 8 bits
Scan type                                : Progressive
Compression mode                         : Lossy
Bits/(Pixel*Frame)                       : 0.343
Stream size                              : 1.14 GiB (82%)
Writing library                          : XviD 66

Audio
ID                                       : 1
Format                                   : AC-3
Format/Info                              : Audio Coding 3
Mode extension                           : CM (complete main)
Format settings, Endianness              : Big
Codec ID                                 : 2000
Duration                                 : 1h 30mn
Bit rate mode                            : Constant
Bit rate                                 : 384 Kbps
Channel(s)                               : 6 channels
Channel positions                        : Front: L C R, Side: L R, LFE
Sampling rate                            : 48.0 KHz
Bit depth                                : 16 bits
Compression mode                         : Lossy
Stream size                              : 248 MiB (17%)
Alignment                                : Aligned on interleaves
Interleave, duration                     : 42 ms (1.00 video frame)
Interleave, preload duration             : 512 ms
Image
Image
Image

Smartass.2017.HDRip.XviD.AC3-EVO.avi  [1.39 Gb]

Post Reply

Return to “Non-Retail (DVDScr, WP, R5, PDVD, VHS, LD, HDTV, TV)”