Dead.South.(2016).WEBRip.AC3.XviD-FGT

Movies in one of the following formats: DVD/VHS Screener (DVDScr/VHSScr; essentially pre-released, less-mastered DVDRips/VHSRips; can be clean or have watermarks such as 'Property of' messages, and black & white scenes), Workprint (WP), R5 DVD rip (R5.DVDRip; video encoded from a Russian retail DVD, while Russian audio usually replaced with cinema quality English audio), PDVD rip (PDVDRip; normally well-mastered TCs), VHS rip (VHSRip), LaserDisc capture (LDCap), and television source encodes (HDTV, DCCap, SatRip, DSR, TVRip).
Post Reply
bjorn j
Donator
Donator
Posts: 3287
Joined: Wed Jan 07, 2009 1:49 pm
Has thanked: 24 times
Been thanked: 4982 times

Dead.South.(2016).WEBRip.AC3.XviD-FGT

Post by bjorn j » Sun Jul 16, 2017 5:54 pm

Image

http://www.IMDb.com/title/tt2106616/
Genres: Action, Drama, Horror

In the wake of the American Civil War two vampires rise and fight to reclaim their land from the inhabitants of a sleepy Southern town.

Code: Select all

Format                                   : AVI
Format/Info                              : Audio Video Interleave
File size                                : 1.42 GiB
Duration                                 : 1h 47mn
Overall bit rate                         : 1 900 Kbps

Video
ID                                       : 0
Format                                   : MPEG-4 Visual
Format profile                           : Simple@L5
Format settings, BVOP                    : No
Format settings, QPel                    : No
Format settings, GMC                     : No warppoints
Format settings, Matrix                  : Default (H.263)
Codec ID                                 : XviD
Codec ID/Hint                            : XviD
Duration                                 : 1h 47mn
Bit rate                                 : 1 506 Kbps
Width                                    : 720 pixels
Height                                   : 400 pixels
Display aspect ratio                     : 16:9
Frame rate                               : 23.976 fps
Color space                              : YUV
Chroma subsampling                       : 4:2:0
Bit depth                                : 8 bits
Scan type                                : Progressive
Compression mode                         : Lossy
Bits/(Pixel*Frame)                       : 0.218
Stream size                              : 1.13 GiB (79%)
Writing library                          : Lavc57.89.100

Audio
ID                                       : 1
Format                                   : AC-3
Format/Info                              : Audio Coding 3
Mode extension                           : CM (complete main)
Format settings, Endianness              : Big
Codec ID                                 : 2000
Duration                                 : 1h 47mn
Bit rate mode                            : Constant
Bit rate                                 : 384 Kbps
Channel(s)                               : 6 channels
Channel positions                        : Front: L C R, Side: L R, LFE
Sampling rate                            : 48.0 KHz
Bit depth                                : 16 bits
Compression mode                         : Lossy
Stream size                              : 295 MiB (20%)
Alignment                                : Aligned on interleaves
Interleave, duration                     : 42 ms (1.00 video frame)
Interleave, preload duration             : 512 ms
Image
Image
Image
Image

Dead.South.2016.WEB-DL.XviD.AC3-FGT.avi  [1.42 Gb]

Post Reply

Return to “Non-Retail (DVDScr, WP, R5, PDVD, VHS, LD, HDTV, TV)”