Borstal.(2017).HDRip.XviD-ETRG

Movies in one of the following formats: DVD/VHS Screener (DVDScr/VHSScr; essentially pre-released, less-mastered DVDRips/VHSRips; can be clean or have watermarks such as 'Property of' messages, and black & white scenes), Workprint (WP), R5 DVD rip (R5.DVDRip; video encoded from a Russian retail DVD, while Russian audio usually replaced with cinema quality English audio), PDVD rip (PDVDRip; normally well-mastered TCs), VHS rip (VHSRip), LaserDisc capture (LDCap), and television source encodes (HDTV, DCCap, SatRip, DSR, TVRip).
Post Reply
bjorn j
Donator
Donator
Posts: 3011
Joined: Wed Jan 07, 2009 1:49 pm
Has thanked: 21 times
Been thanked: 2994 times

Borstal.(2017).HDRip.XviD-ETRG

Post by bjorn j » Thu Apr 20, 2017 10:54 pm

Image

http://www.IMDb.com/title/tt5876322/
Genre: Drama

Set in 1971, Kris is sentenced to two years in a rural Borstal.

1971, 17 year old, Kris Gray, is sent from Wormwood Scrubs prison, whist on remand, to a rural Borstal for young offenders, his sentence 2 years. The Borstal is run by Governor Heywood an ex-military man with a good heart and his second in command Len Forshaw who is the opposite, a man with a vicious chip on his shoulder who thinks the borstal boys should be treated like they are in his own little army. Forshaw goes out of his way to prevent Kris from leaving the borstal before his 2 year sentence is complete. Brutal beatings, evil screws, vicious inmates, will Kris survive it and become the man he wants to be?

Code: Select all

General
Complete name                            :Borstal.2017.HDRip.XviD-ETRG.avi
Format                                   : AVI
Format/Info                              : Audio Video Interleave
File size                                : 700 MiB
Duration                                 : 1h 27mn
Overall bit rate                         : 1 123 Kbps
Writing application                      : VirtualDubMod 1.5.10.2 (build 2540/release)
Writing library                          : VirtualDubMod build 2540/release

Video
ID                                       : 0
Format                                   : MPEG-4 Visual
Format profile                           : Advanced Simple@L5
Format settings, BVOP                    : 2
Format settings, QPel                    : No
Format settings, GMC                     : No warppoints
Format settings, Matrix                  : Default (H.263)
Muxing mode                              : Packed bitstream
Codec ID                                 : XviD
Codec ID/Hint                            : XviD
Duration                                 : 1h 27mn
Bit rate                                 : 985 Kbps
Width                                    : 640 pixels
Height                                   : 272 pixels
Display aspect ratio                     : 2.35:1
Frame rate                               : 25.000 fps
Color space                              : YUV
Chroma subsampling                       : 4:2:0
Bit depth                                : 8 bits
Scan type                                : Progressive
Compression mode                         : Lossy
Bits/(Pixel*Frame)                       : 0.226
Stream size                              : 614 MiB (88%)
Writing library                          : XviD 65

Audio
ID                                       : 1
Format                                   : MPEG Audio
Format version                           : Version 1
Format profile                           : Layer 3
Mode                                     : Joint stereo
Mode extension                           : MS Stereo
Codec ID                                 : 55
Codec ID/Hint                            : MP3
Duration                                 : 1h 27mn
Bit rate mode                            : Constant
Bit rate                                 : 128 Kbps
Channel(s)                               : 2 channels
Sampling rate                            : 48.0 KHz
Compression mode                         : Lossy
Stream size                              : 79.8 MiB (11%)
Alignment                                : Split accross interleaves
Interleave, duration                     : 40 ms (1.00 video frame)
Interleave, preload duration             : 500 ms
Writing library                          : LAME3.99r
Encoding settings                        : -m j -V 4 -q 3 -lowpass 17 -b 128
Image
Image
Image
Image

Borstal.2017.HDRip.XviD-ETRG.avi  [699.59 Mb]

Post Reply

Return to “Non-Retail (DVDScr, WP, R5, PDVD, VHS, LD, HDTV, TV)”