The.Shadow.People.(2017).HDRip.XviD-EVO

Movies in one of the following formats: DVD/VHS Screener (DVDScr/VHSScr; essentially pre-released, less-mastered DVDRips/VHSRips; can be clean or have watermarks such as 'Property of' messages, and black & white scenes), Workprint (WP), R5 DVD rip (R5.DVDRip; video encoded from a Russian retail DVD, while Russian audio usually replaced with cinema quality English audio), PDVD rip (PDVDRip; normally well-mastered TCs), VHS rip (VHSRip), LaserDisc capture (LDCap), and television source encodes (HDTV, DCCap, SatRip, DSR, TVRip).
Post Reply
bjorn j
Donator
Donator
Posts: 3030
Joined: Wed Jan 07, 2009 1:49 pm
Has thanked: 18 times
Been thanked: 2506 times

The.Shadow.People.(2017).HDRip.XviD-EVO

Post by bjorn j » Mon Mar 20, 2017 10:26 pm

Image

http://www.IMDb.com/title/tt3721112/
Genre: Thriller

Newlyweds Megan (Kat Steffans, Parkland) and Andrew (Bug Hall, Castle) have just moved into their dream home with aspirations to start a family. But soon strange events start happening. Voices and shadowy figures haunt Megan, and even Andrew, starts questioning his own sanity as their marriage is being torn apart. The visions grow increasingly real..and threatening, yet Megan is unwilling to relinquish her home. When the appearance of a mysterious priest (C. Thomas Howell, The Amazing Spiderman) unveils the truth behind their nightmare, Megan's reality takes a desperate turn that her haunting visions never could have predicted.

Code: Select all

Video
ID                                       : 0
Format                                   : MPEG-4 Visual
Format profile                           : Advanced Simple@L5
Format settings, BVOP                    : 2
Format settings, QPel                    : No
Format settings, GMC                     : No warppoints
Format settings, Matrix                  : Default (H.263)
Muxing mode                              : Packed bitstream
Codec ID                                 : XviD
Codec ID/Hint                            : XviD
Duration                                 : 1h 18mn
Bit rate                                 : 2 254 Kbps
Width                                    : 720 pixels
Height                                   : 304 pixels
Display aspect ratio                     : 2.35:1
Frame rate                               : 23.976 fps
Color space                              : YUV
Chroma subsampling                       : 4:2:0
Bit depth                                : 8 bits
Scan type                                : Progressive
Compression mode                         : Lossy
Bits/(Pixel*Frame)                       : 0.429
Stream size                              : 1.24 GiB (92%)
Writing library                          : XviD 66

Audio
ID                                       : 1
Format                                   : AC-3
Format/Info                              : Audio Coding 3
Mode extension                           : CM (complete main)
Format settings, Endianness              : Big
Codec ID                                 : 2000
Duration                                 : 1h 18mn
Bit rate mode                            : Constant
Bit rate                                 : 192 Kbps
Channel(s)                               : 2 channels
Channel positions                        : Front: L R
Sampling rate                            : 48.0 KHz
Bit depth                                : 16 bits
Compression mode                         : Lossy
Stream size                              : 108 MiB (8%)
Alignment                                : Aligned on interleaves
Interleave, duration                     : 64 ms (1.53 video frames)
Interleave, preload duration             : 192 ms
Title                                    : ac3
Image
Image
Image
Image

The.Shadow.People.2017.HDRip.XviD.AC3-EVO.avi  [1.35 Gb]

Post Reply

Return to “Non-Retail (DVDScr, WP, R5, PDVD, VHS, LD, HDTV, TV)”

Who is online

Users browsing this forum: gcomp, norcom850 and 4 guests