The.Last.King.(2015).HDRip.AC3.XviD-EVO

Movies in one of the following formats: DVD/VHS Screener (DVDScr/VHSScr; essentially pre-released, less-mastered DVDRips/VHSRips; can be clean or have watermarks such as 'Property of' messages, and black & white scenes), Workprint (WP), R5 DVD rip (R5.DVDRip; video encoded from a Russian retail DVD, while Russian audio usually replaced with cinema quality English audio), PDVD rip (PDVDRip; normally well-mastered TCs), VHS rip (VHSRip), LaserDisc capture (LDCap), and television source encodes (HDTV, DCCap, SatRip, DSR, TVRip).
Post Reply
bjorn j
Donator
Donator
Posts: 3368
Joined: Wed Jan 07, 2009 1:49 pm
Has thanked: 5 times
Been thanked: 1173 times

The.Last.King.(2015).HDRip.AC3.XviD-EVO

Post by bjorn j » Wed Jan 11, 2017 9:08 pm

Image

http://www.IMDb.com/title/tt1830848/
Genres: Action, Drama, History

150 Years ago The British (Queen) took something that's doesn't belong to them. It's priceless, it's pride, it's dignity. Today, He wants it back at all cost.

The precious Kohinoor diamond belongs the last king of Punjab, the Maharaja Ranjit Singh. The fabled Kohinoor diamond is a symbol of Sikh strength and pride. This diamond was stolen by the British 150 years ago and was brought back to England where it was recut and set in Queen Victoria's crown as a mark of the British domination in India. Now the descendent Colonel Ranjit Singh (Steve Nijjar) wants it back. This tale of power, greed, and honour in reclaiming the precious diamond continues as Ranjit Singh attempts to reclaim what was taken away from the Punjabi people in present day. Ranjit, a Special Ops Captain in the Canadian Army, feels obligated to bring the Kohinoor back to his people. The opportunity presents itself when the crown makes its way to a Toronto museum for an exclusive 3 day public exhibit. Ranjit finds himself prepared to stop at nothing and no one to recover the diamond. Detective Jack Kelsey (Mark Poyser) has the arduous task of protecting the priceless and ...

Code: Select all

Video
ID                                       : 0
Format                                   : MPEG-4 Visual
Format profile                           : Advanced Simple@L5
Format settings, BVOP                    : 2
Format settings, QPel                    : No
Format settings, GMC                     : No warppoints
Format settings, Matrix                  : Default (H.263)
Muxing mode                              : Packed bitstream
Codec ID                                 : XviD
Codec ID/Hint                            : XviD
Duration                                 : 1h 50mn
Bit rate                                 : 1 409 Kbps
Width                                    : 720 pixels
Height                                   : 400 pixels
Display aspect ratio                     : 16:9
Frame rate                               : 23.976 fps
Color space                              : YUV
Chroma subsampling                       : 4:2:0
Bit depth                                : 8 bits
Scan type                                : Progressive
Compression mode                         : Lossy
Bits/(Pixel*Frame)                       : 0.204
Stream size                              : 1.09 GiB (78%)
Writing library                          : XviD 66

Audio
ID                                       : 1
Format                                   : AC-3
Format/Info                              : Audio Coding 3
Mode extension                           : CM (complete main)
Format settings, Endianness              : Big
Codec ID                                 : 2000
Duration                                 : 1h 50mn
Bit rate mode                            : Constant
Bit rate                                 : 384 Kbps
Channel(s)                               : 6 channels
Channel positions                        : Front: L C R, Side: L R, LFE
Sampling rate                            : 48.0 KHz
Bit depth                                : 16 bits
Compression mode                         : Lossy
Stream size                              : 304 MiB (21%)
Alignment                                : Aligned on interleaves
Interleave, duration                     : 42 ms (1.00 video frame)
Interleave, preload duration             : 512 ms
Image
Image
Image
Image

The.Last.King.2015.HDRip.XviD.AC3-EVO.avi  [1.39 Gb]

Post Reply

Return to “Non-Retail (DVDScr, WP, R5, PDVD, VHS, LD, HDTV, TV)”

Who is online

Users browsing this forum: No registered users and 4 guests