Page 1 of 1

Ozzy Osbourne Ordinary Man (Deluxe Edition) (2020) [Metal]

Posted: Thu Oct 08, 2020 4:42 pm
by raffe
Image
Tracklist:
01. Straight To Hell (3:46)
02. All My Life (4:18)
03. Goodbye (5:34)
04. Ordinary Man (Feat. Elton John) (5:02)
05. Under The Graveyard (4:57)
06. Eat Me (4:19)
07. Today Is The End (4:06)
08. Scary Little Green Men (4:21)
09. Holy For Tonight (4:52)
10. It's A Raid (Feat. Post Malone) (4:21)
11. Take What You Want (Feat. Post Malone & Travis Scott) (Bonus Track) (3:50)

Samples:
https://youtu.be/iuzyA5gDa4E
https://youtu.be/kSRNrVjISRQ
https://youtu.be/dBF78tA443A

Image
Band Official link:
Ozzy Osbourne – Lead Vocals
Andrew Watt – Guitars, Production
Duff McKagan – Bass Guitar
Chad Smith – Drums
Slash – Lead Guitar (Tracks 1, 4)
Tom Morello - Guitar (Track 8)
Charlie Puth – Keyboards (Track 1)[7]
Elton John – Piano And co-Lead Vocals (track 4)
Post Malone – co-Lead Vocals (Track 10,11)
Travis Scot - co-Lead Vocals (Track 11)

Code: Select all

Exact Audio Copy V1.4 from 3. February 2020

EAC extraction logfile from 11. March 2020, 11:35

Ozzy Osbourne / Ordinary Man

Used drive  : HL-DT-STDVDRAM GH24NSD1  Adapter: 1  ID: 0

Read mode              : Secure
Utilize accurate stream : Yes
Defeat audio cache      : Yes
Make use of C2 pointers : No

Read offset correction                      : 6
Overread into Lead-In and Lead-Out          : No
Fill up missing offset samples with silence : Yes
Delete leading and trailing silent blocks  : No
Null samples used in CRC calculations      : Yes
Used interface                              : Native Win32 interface for Win NT & 2000

Used output format              : User Defined Encoder
Selected bitrate                : 896 kBit/s
Quality                        : High
Add ID3 tag                    : No
Command line compressor        : C:Program Files (x86)Exact Audio Copywavpack.exe
Additional command line options : -hm %source% %dest%


TOC of the extracted CD

    Track |  Start  |  Length  | Start sector | End sector
    ---------------------------------------------------------
        1  |  0:00.00 |  3:45.52 |        0    |    16926 
        2  |  3:45.52 |  4:18.21 |    16927    |    36297 
        3  |  8:03.73 |  5:34.26 |    36298    |    61373 
        4  | 13:38.24 |  5:01.54 |    61374    |    84002 
        5  | 18:40.03 |  4:57.34 |    84003    |  106311 
        6  | 23:37.37 |  4:19.01 |    106312    |  125737 
        7  | 27:56.38 |  4:06.32 |    125738    |  144219 
        8  | 32:02.70 |  4:20.72 |    144220    |  163791 
        9  | 36:23.67 |  4:52.09 |    163792    |  185700 
      10  | 41:16.01 |  4:20.56 |    185701    |  205256 
      11  | 45:36.57 |  3:49.59 |    205257    |  222490 


Range status and errors

Selected range

    Filename E:NetLab Club ReleasesOzzy Osbourne - 2020 - Ordinary Man (Deluxe Edition)Ozzy Osbourne - Ordinary Man.wav

    Peak level 100.0 %
    Extraction speed 1.2 X
    Range quality 100.0 %
    Test CRC DA740FD5
    Copy CRC DA740FD5
    Copy OK

No errors occurred


AccurateRip summary

Track  1  not present in database
Track  2  not present in database
Track  3  not present in database
Track  4  not present in database
Track  5  not present in database
Track  6  not present in database
Track  7  not present in database
Track  8  not present in database
Track  9  not present in database
Track 10  not present in database
Track 11  not present in database

None of the tracks are present in the AccurateRip database

End of status report

---- CUETools DB Plugin V2.1.6

[CTDB TOCID: qL8FvmoRxBkK7aj3DwqfZ2Lw6nA-] found
Submit result: qL8FvmoRxBkK7aj3DwqfZ2Lw6nA- has been confirmed
Track | CTDB Status
  1  | (280/282) Accurately ripped, or (1/282) differs in 13 samples @00:21:00
  2  | (280/282) Accurately ripped
  3  | (280/282) Accurately ripped
  4  | (279/282) Accurately ripped
  5  | (279/282) Accurately ripped
  6  | (280/282) Accurately ripped
  7  | (279/282) Accurately ripped
  8  | (279/282) Accurately ripped
  9  | (279/282) Accurately ripped
10  | (279/282) Accurately ripped
11  | (279/282) Accurately ripped


==== Log checksum 1B5BC31582F8FD0FEAB42884880B003DC6E4A5F74D7A2969DC6CFD992E555760 ====
Spoiler: Toggle
(To open the WavPack, you can as an example use 7-zip)
Ozzy.Osbourne.2020.Ordinary.Man.(Deluxe.Edition).[NLplus].By.Jocker.wv.iso.wv  [530.33 Mb]