Sahara.(1943).FS.iNTERNAL.DVDRip.XviD-EXViDiNT

The switch to colour was a gradual process mostly taking place from the 1930s to the 1950s. This section contains any movie which is completely in black and white from old classics to newer ones such as Schindler's List.
Post Reply
IoNeL
Banned
Posts: 29
Joined: Tue Mar 17, 2009 11:53 pm
Been thanked: 2 times

Sahara.(1943).FS.iNTERNAL.DVDRip.XviD-EXViDiNT

Post by IoNeL »

Sahara (1943)
Image
click on poster to see another poster
http://www.IMDb.com/title/tt0036323/
97 min | Action, Drama, War |
Sergeant Joe Gunn and his tank crew pick up five British soldiers, a Frenchman and a Sudanese man with an Italian prisoner crossing the Libyan Desert to rejoin their command after the fall of Tobruk. They and the Germans are greatly in need of water.
- Written by Ed Stephan <stephan@cc.wwu.edu>

Code: Select all

General
Complete name                            : Z:\Z\Sahara.1943.iNTERNAL.DVDRip.XviD-EXViDiNT[rarbg]\Sahara.(1943).B&W.FS.iNTERNAL.DVDRip.XviD-EXViDiNT sharethefiles.com.avi
Format                                   : AVI
Format/Info                              : Audio Video Interleave
File size                                : 699 MiB
Duration                                 : 1h 33mn
Overall bit rate mode                    : Variable
Overall bit rate                         : 1 043 Kbps
Writing application                      : VirtualDubMod 1.5.10.2 (build 2540/release)
Writing library                          : VirtualDubMod build 2540/release

Video
ID                                       : 0
Format                                   : MPEG-4 Visual
Format profile                           : Advanced Simple@L5
Format settings, BVOP                    : 2
Format settings, QPel                    : No
Format settings, GMC                     : No warppoints
Format settings, Matrix                  : Default (H.263)
Muxing mode                              : Packed bitstream
Codec ID                                 : XviD
Codec ID/Hint                            : XviD
Duration                                 : 1h 33mn
Bit rate                                 : 948 Kbps
Width                                    : 512 pixels
Height                                   : 384 pixels
Display aspect ratio                     : 4:3
Frame rate                               : 25.000 fps
Color space                              : YUV
Chroma subsampling                       : 4:2:0
Bit depth                                : 8 bits
Scan type                                : Progressive
Compression mode                         : Lossy
Bits/(Pixel*Frame)                       : 0.193
Stream size                              : 635 MiB (91%)
Writing library                          : XviD 64

Audio
ID                                       : 1
Format                                   : MPEG Audio
Format version                           : Version 1
Format profile                           : Layer 3
Codec ID                                 : 55
Codec ID/Hint                            : MP3
Duration                                 : 1h 33mn
Bit rate mode                            : Variable
Bit rate                                 : 81.8 Kbps
Minimum bit rate                         : 32.0 Kbps
Channel(s)                               : 1 channel
Sampling rate                            : 48.0 KHz
Compression mode                         : Lossy
Stream size                              : 54.8 MiB (8%)
Alignment                                : Aligned on interleaves
Interleave, duration                     : 24 ms (0.60 video frame)
Interleave, preload duration             : 225 ms
Writing library                          : LAME3.98r
Encoding settings                        : -m m -V 4 -q 0 -lowpass 17.5 --vbr-new -b 32

Post Reply

Return to “Black & White”