Toys.in.the.Attic.(1963).DVDRip.XviD

The switch to colour was a gradual process mostly taking place from the 1930s to the 1950s. This section contains any movie which is completely in black and white from old classics to newer ones such as Schindler's List.
Post Reply
erdamon
Registered user
Registered user
Posts: 716
Joined: Sat Oct 14, 2006 12:00 am
Been thanked: 27 times

Toys.in.the.Attic.(1963).DVDRip.XviD

Post by erdamon »

Toys in the Attic (1963)

Image

http://www.IMDb.com/title/tt0057598/

Storyline: Sisters Carrie and Anna Berniers have been supporting their ne'er-do-well brother Julian through various failed businesses; now, he returns home with a sudden fortune and his young bride. Jealousies both old and new will play a part as the sisters try to understand what Julian's been up to, and as his wife wonders if there's another woman involved.

Code: Select all

General
Complete name                    : D:\eMule\Incoming\Toys in the Attic.1963 (George Roy Hill. Dean Martin, Geraldine Page, Yvette Mimieux).[English].avi
Format                           : AVI
Format/Info                      : Audio Video Interleave
File size                        : 896 MiB
Duration                         : 1h 30mn
Overall bit rate                 : 1 378 Kbps
Writing application              : VirtualDubMod 1.5.4.1 (build 2178/release)
Writing library                  : VirtualDubMod build 2178/release

Video
ID                               : 0
Format                           : MPEG-4 Visual
Format profile                   : Simple@L3
Format settings, BVOP            : No
Format settings, QPel            : No
Format settings, GMC             : No warppoints
Format settings, Matrix          : Default (H.263)
Codec ID                         : XviD
Codec ID/Hint                    : XviD
Duration                         : 1h 30mn
Bit rate                         : 1 310 Kbps
Width                            : 640 pixels
Height                           : 288 pixels
Display aspect ratio             : 2.222
Frame rate                       : 23.976 fps
Resolution                       : 8 bits
Colorimetry                      : 4:2:0
Scan type                        : Progressive
Bits/(Pixel*Frame)               : 0.296
Stream size                      : 852 MiB (95%)
Writing library                  : XviD 1.2.0.dev47 (UTC 2006-11-01)

Audio
ID                               : 1
Format                           : MPEG Audio
Format version                   : Version 1
Format profile                   : Layer 3
Codec ID                         : 55
Codec ID/Hint                    : MP3
Duration                         : 1h 30mn
Bit rate mode                    : Variable
Bit rate                         : 55.4 Kbps
Nominal bit rate                 : 64.0 Kbps
Channel(s)                       : 1 channel
Sampling rate                    : 48.0 KHz
Stream size                      : 36.1 MiB (4%)
Alignment                        : Aligned on interleaves
Interleave, duration             : 24 ms (0.58 video frame)
Interleave, preload duration     : 592 ms
Writing library                  : LAME3.97 
Encoding settings                : -m m -V 4 -q 2 -lowpass 16.5 --abr 64

Image
Image
Image Image Image Image Image

Toys in the Attic.1963 (George Roy Hill. Dean Martin, Geraldine Page, Yvette Mimieux).[English].avi  [896.22 Mb]

mgd33
Registered user
Registered user
Posts: 354
Joined: Thu Mar 29, 2007 7:17 pm
Location: the Netherlands
Has thanked: 125 times

Re: Toys.in.the.Attic.(1963).DVDRip.XviD

Post by mgd33 »

Thanks.

Post Reply

Return to “Black & White”