Babes.in.Arms.(1939).FS.DVDRip.x264

The switch to colour was a gradual process mostly taking place from the 1930s to the 1950s. This section contains any movie which is completely in black and white from old classics to newer ones such as Schindler's List.
Post Reply
Will-I-Am
Donator
Donator
Posts: 460
Joined: Mon Apr 19, 2010 9:45 pm
Location: The Big Apple
Been thanked: 37 times

Babes.in.Arms.(1939).FS.DVDRip.x264

Post by Will-I-Am »

Image
Babes in Arms is a film adaptation of the classic Rodgers & Hart Broadway musical. It tells the story of Mickey Moran (Mickey Rooney), a talented singer and performer. His parents are Broadway veterans themselves but believe that musicals are a waste of time and that Vaudeville is the only true theatrical genre. During one of his performances, Mickey and his partner, Patsy (Judy Garland), are asked to put on a self-directed show. Mickey's parents find out and threaten to send him to work on a farm if he so much as thinks about going through with his plan. Mickey ignores the threats and goes off with Patsy in an effort to prove his parents wrong and finally make it in the world of show business. The film was nominated for two Academy Awards (Mickey Rooney for Best Actor in a Leading Role, and Roger Edens for Best Musical Scoring). This faithful adaptation remains a true classic among fans of Broadway musicals.

Code: Select all

General
Complete name                            : Babes.in.Arms.(1939).FS.DVDRip.x264.mkv
Format                                   : Matroska
Format version                           : Version 2
File size                                : 1.29 GiB
Duration                                 : 1h 36mn
Overall bit rate                         : 1 929 Kbps
Encoded date                             : UTC 2013-11-23 16:39:01
Writing application                      : mkvmerge v5.7.0 ('The Whirlwind') built on Jul  8 2012 20:08:51
Writing library                          : libebml v1.2.3 + libmatroska v1.3.0

Video
ID                                       : 1
Format                                   : AVC
Format/Info                              : Advanced Video Codec
Format profile                           : High@L3.1
Format settings, CABAC                   : Yes
Format settings, ReFrames                : 9 frames
Muxing mode                              : Header stripping
Codec ID                                 : V_MPEG4/ISO/AVC
Duration                                 : 1h 36mn
Bit rate                                 : 1 699 Kbps
Width                                    : 716 pixels
Height                                   : 478 pixels
Display aspect ratio                     : 4:3
Frame rate mode                          : Constant
Frame rate                               : 23.976 fps
Color space                              : YUV
Chroma subsampling                       : 4:2:0
Bit depth                                : 8 bits
Scan type                                : Progressive
Bits/(Pixel*Frame)                       : 0.207
Stream size                              : 1.14 GiB (88%)
Writing library                          : x264 core 130 r2273 b3065e6
Encoding settings                        : cabac=1 / ref=9 / deblock=1:-2:-2 / analyse=0x3:0x133 / me=umh / subme=9 / psy=1 / psy_rd=1.00:0.00 / mixed_ref=1 / me_range=24 / chroma_me=1 / trellis=2 / 8x8dct=1 / cqm=0 / deadzone=21,11 / fast_pskip=0 / chroma_qp_offset=-2 / threads=12 / lookahead_threads=1 / sliced_threads=0 / nr=0 / decimate=1 / interlaced=0 / bluray_compat=0 / constrained_intra=0 / bframes=6 / b_pyramid=2 / b_adapt=2 / b_bias=0 / direct=3 / weightb=1 / open_gop=0 / weightp=2 / keyint=240 / keyint_min=24 / scenecut=40 / intra_refresh=0 / rc_lookahead=240 / rc=crf / mbtree=1 / crf=19.0 / qcomp=0.60 / qpmin=0 / qpmax=69 / qpstep=4 / ip_ratio=1.40 / aq=1:1.20
Language                                 : English
Default                                  : Yes
Forced                                   : No
Color primaries                          : BT.601 NTSC
Transfer characteristics                 : BT.709
Matrix coefficients                      : BT.601

Audio
ID                                       : 2
Format                                   : AC-3
Format/Info                              : Audio Coding 3
Mode extension                           : CM (complete main)
Format settings, Endianness              : Big
Muxing mode                              : Header stripping
Codec ID                                 : A_AC3
Duration                                 : 1h 36mn
Bit rate mode                            : Constant
Bit rate                                 : 192 Kbps
Channel(s)                               : 1 channel
Channel positions                        : Front: C
Sampling rate                            : 48.0 KHz
Bit depth                                : 16 bits
Compression mode                         : Lossy
Stream size                              : 132 MiB (10%)
Language                                 : English
Default                                  : Yes
Forced                                   : No

Text
ID                                       : 3
Format                                   : UTF-8
Codec ID                                 : S_TEXT/UTF8
Codec ID/Info                            : UTF-8 Plain Text
Language                                 : Spanish
Default                                  : Yes
Forced                                   : No

Menu
00:00:00.000                             : en:Credits
00:01:09.611                             : en:Vaudeville saga
00:06:19.253                             : en:Good Morning
00:11:15.716                             : en:I do, very much
00:14:04.385                             : en:I Like Opera, I Like Swing
00:17:18.078                             : en:You Are My Lucky Star
00:21:37.671                             : en:Babes in Amrs
00:26:30.630                             : en:Martha's challenge
00:30:29.869                             : en:Row over Rosaile
00:34:23.269                             : en:Case dismissed
00:37:04.263                             : en:Where or When
00:43:15.301                             : en:Dinner with Rosalie
00:48:25.944                             : en:Have a cigar
00:50:14.052                             : en:Understudy
00:54:26.471                             : en:Like Gable and Baryymore
00:59:30.275                             : en:I Cried for You
01:04:30.241                             : en:Too many heartaches
01:07:42.767                             : en:Back in the show
01:10:39.276                             : en:Minstrel Man medley
01:14:50.027                             : en:Ida/I'm Just Wild About Haryy
01:18:04.721                             : en:Letter from New York
01:22:30.987                             : en:Bigger than just a show
01:27:56.312                             : en:God's Country
01:30:59.871                             : en:The Roosevelts
01:33:05.121                             : en:Finale
01:35:22.466                             : en:Cast List
Babes.in.Arms.(1939).FS.DVDRip.x264.mkv  [1.29 Gb]


Image Image Image Image Image Image

Post Reply

Return to “Black & White”