Oliver.Twist.(1922).(English.Intertitled).FS.DVDRip.XviD

The switch to colour was a gradual process mostly taking place from the 1930s to the 1950s. This section contains any movie which is completely in black and white from old classics to newer ones such as Schindler's List.
Post Reply
erdamon
Registered user
Registered user
Posts: 716
Joined: Sat Oct 14, 2006 12:00 am
Been thanked: 27 times

Oliver.Twist.(1922).(English.Intertitled).FS.DVDRip.XviD

Post by erdamon »

Oliver Twist (1922)

Image

http://www.IMDb.com/title/tt0013450/

Storyline: Oliver's mother, a penniless outcast, died giving birth to him. As a young boy Oliver is brought up in a workhouse, later apprenticed to an uncaring undertaker, and eventually is taken in by a gang of thieves who befriend him for their own purposes. All the while, there are secrets from Oliver's family history waiting to come to light.

Code: Select all

General
Complete name                    : D:\eMule\Incoming\Oliver.Twist.(Frank.Lloyd,1922).(Silent.Spanishsub).DVD-Rip.XviD-mp3.avi
Format                           : AVI
Format/Info                      : Audio Video Interleave
File size                        : 699 MiB
Duration                         : 1h 14mn
Overall bit rate                 : 1 319 Kbps
Movie name                       : Oliver.Twist.(Frank Lloyd,1922).DVDRip.VO
Writing application              : VirtualDubMod 1.5.10.2 (build 2540/release)
Writing library                  : VirtualDubMod build 2540/release

Video
ID                               : 0
Format                           : MPEG-4 Visual
Format profile                   : Advanced Simple@L5
Format settings, BVOP            : Yes
Format settings, QPel            : No
Format settings, GMC             : No warppoints
Format settings, Matrix          : Default (H.263)
Muxing mode                      : Packed bitstream
Codec ID                         : XviD
Codec ID/Hint                    : XviD
Duration                         : 1h 14mn
Bit rate                         : 1 231 Kbps
Width                            : 576 pixels
Height                           : 448 pixels
Display aspect ratio             : 1.286
Frame rate                       : 23.976 fps
Resolution                       : 8 bits
Colorimetry                      : 4:2:0
Scan type                        : Progressive
Bits/(Pixel*Frame)               : 0.199
Stream size                      : 653 MiB (93%)
Writing library                  : XviD 1.1.2 (UTC 2006-11-01)

Audio
ID                               : 1
Format                           : MPEG Audio
Format version                   : Version 1
Format profile                   : Layer 3
Mode                             : Joint stereo
Format_Settings_ModeExtension    : MS Stereo
Codec ID                         : 55
Codec ID/Hint                    : MP3
Duration                         : 1h 14mn
Bit rate mode                    : Variable
Bit rate                         : 75.6 Kbps
Minimum bit rate                 : 32.0 Kbps
Channel(s)                       : 2 channels
Sampling rate                    : 48.0 KHz
Stream size                      : 40.1 MiB (6%)
Alignment                        : Aligned on interleaves
Interleave, duration             : 24 ms (0.58 video frame)
Interleave, preload duration     : 243 ms
Writing library                  : LAME3.97b
Encoding settings                : -m j -V 5 -q 3 -lowpass 16 --vbr-new -b 32

Image
Image
Image Image Image Image Image


Oliver.Twist.(Frank.Lloyd,1922).(Silent.Spanishsub).DVD-Rip.XviD-mp3.(emuliza.filibusteros.com).avi  [699.50 Mb]

Post Reply

Return to “Black & White”