Juarez.(1939).FS.DVDRip.X264-Tala99

The switch to colour was a gradual process mostly taking place from the 1930s to the 1950s. This section contains any movie which is completely in black and white from old classics to newer ones such as Schindler's List.
Post Reply
Will-I-Am
Donator
Donator
Posts: 460
Joined: Mon Apr 19, 2010 9:45 pm
Location: The Big Apple
Been thanked: 37 times

Juarez.(1939).FS.DVDRip.X264-Tala99

Post by Will-I-Am »

Image

In 1863, Louis Napoleon of France, threatened with the loss of Mexico under its new president, Benito Juarez, decides to circumvent the Monroe Doctrine by instituting sovereign rule. Napoleon cleverly engineers an election that puts the unwitting Maximilian von Hapsburg on the Mexican throne.

Code: Select all

General
Complete name                            : Dieterle - (1939)  (Juarez) - Muni, Davis, Aherne, Rains, Garfield - Vose.mkv
Format                                   : Matroska
Format version                           : Version 2
File size                                : 1.79 GiB
Duration                                 : 2h 0mn
Overall bit rate                         : 2 126 Kbps
Encoded date                             : UTC 2011-12-05 13:38:09
Writing application                      : mkvmerge v5.0.1 ('Es ist Sommer') built on Oct  9 2011 11:55:43
Writing library                          : libebml v1.2.2 + libmatroska v1.3.0

Video
ID                                       : 1
Format                                   : AVC
Format/Info                              : Advanced Video Codec
Format profile                           : Main@L3.0
Format settings, CABAC                   : Yes
Format settings, ReFrames                : 4 frames
Muxing mode                              : Header stripping
Codec ID                                 : V_MPEG4/ISO/AVC
Bit rate                                 : 1 805 Kbps
Width                                    : 720 pixels
Height                                   : 528 pixels
Display aspect ratio                     : 4:3
Frame rate mode                          : Variable
Color space                              : YUV
Chroma subsampling                       : 4:2:0
Bit depth                                : 8 bits
Scan type                                : Progressive
Writing library                          : x264 core 112
Encoding settings                        : cabac=1 / ref=3 / deblock=1:0:0 / analyse=0x1:0x111 / me=hex / subme=7 / psy=1 / psy_rd=1.00:0.00 / mixed_ref=1 / me_range=16 / chroma_me=1 / trellis=1 / 8x8dct=0 / cqm=0 / deadzone=21,11 / fast_pskip=1 / chroma_qp_offset=-2 / threads=3 / sliced_threads=0 / nr=0 / decimate=1 / interlaced=0 / constrained_intra=0 / bframes=3 / b_pyramid=2 / b_adapt=2 / b_bias=0 / direct=1 / weightb=1 / open_gop=0 / weightp=2 / keyint=240 / keyint_min=23 / scenecut=40 / intra_refresh=0 / rc_lookahead=50 / rc=2pass / mbtree=1 / bitrate=1805 / ratetol=1.0 / qcomp=0.60 / qpmin=3 / qpmax=51 / qpstep=4 / cplxblur=20.0 / qblur=0.5 / ip_ratio=1.40 / aq=1:1.00
Language                                 : English
Default                                  : Yes
Forced                                   : No
Color primaries                          : BT.601 NTSC
Transfer characteristics                 : BT.709
Matrix coefficients                      : BT.601

Audio #1
ID                                       : 2
Format                                   : MPEG Audio
Format version                           : Version 1
Format profile                           : Layer 3
Mode                                     : Joint stereo
Mode extension                           : MS Stereo
Muxing mode                              : Header stripping
Codec ID                                 : A_MPEG/L3
Codec ID/Hint                            : MP3
Duration                                 : 2h 0mn
Bit rate mode                            : Constant
Bit rate                                 : 160 Kbps
Channel(s)                               : 2 channels
Sampling rate                            : 48.0 KHz
Compression mode                         : Lossy
Stream size                              : 138 MiB (8%)
Title                                    : Español
Language                                 : Spanish
Default                                  : Yes
Forced                                   : No

Audio #2
ID                                       : 3
Format                                   : MPEG Audio
Format version                           : Version 1
Format profile                           : Layer 3
Mode                                     : Joint stereo
Mode extension                           : MS Stereo
Muxing mode                              : Header stripping
Codec ID                                 : A_MPEG/L3
Codec ID/Hint                            : MP3
Duration                                 : 2h 0mn
Bit rate mode                            : Constant
Bit rate                                 : 160 Kbps
Channel(s)                               : 2 channels
Sampling rate                            : 48.0 KHz
Compression mode                         : Lossy
Stream size                              : 138 MiB (8%)
Title                                    : Ingles
Writing library                          : LAME3.98r
Encoding settings                        : -m j -V 4 -q 2 -lowpass 17.5 -b 160
Language                                 : English
Default                                  : No
Forced                                   : No

Text
ID                                       : 4
Format                                   : UTF-8
Codec ID                                 : S_TEXT/UTF8
Codec ID/Info                            : UTF-8 Plain Text
Title                                    : Español
Language                                 : Spanish
Default                                  : Yes
Forced                                   : No

Menu
00:00:00.000                             : en:Chapter 1
00:01:35.095                             : en:Chapter 2
00:06:01.361                             : en:Chapter 3
00:08:31.511                             : en:Chapter 4
00:11:36.696                             : en:Chapter 5
00:16:48.007                             : en:Chapter 6
00:20:18.217                             : en:Chapter 7
00:24:06.445                             : en:Chapter 8
00:26:21.580                             : en:Chapter 9
00:28:56.735                             : en:Chapter 10
00:30:52.851                             : en:Chapter 11
00:33:01.980                             : en:Chapter 12
00:37:36.254                             : en:Chapter 13
00:39:59.397                             : en:Chapter 14
00:43:47.625                             : en:Chapter 15
00:47:07.825                             : en:Chapter 16
00:50:00.998                             : en:Chapter 17
00:54:36.273                             : en:Chapter 18
01:00:29.626                             : en:Chapter 19
01:05:18.915                             : en:Chapter 20
01:09:41.177                             : en:Chapter 21
01:12:41.357                             : en:Chapter 22
01:14:28.464                             : en:Chapter 23
01:16:26.582                             : en:Chapter 24
01:18:50.726                             : en:Chapter 25
01:22:11.927                             : en:Chapter 26
01:23:42.017                             : en:Chapter 27
01:26:42.197                             : en:Chapter 28
01:30:33.428                             : en:Chapter 29
01:34:42.677                             : en:Chapter 30
01:38:13.888                             : en:Chapter 31
01:41:57.111                             : en:Chapter 32
01:45:30.324                             : en:Chapter 33
01:49:24.558                             : en:Chapter 34
01:52:40.754                             : en:Chapter 35
01:55:24.918                             : en:Chapter 36
01:58:51.124                             : en:Chapter 37
02:00:13.206                             : en:Chapter 38


Audio: Spanish / English
Subtitles: Spanish

Juarez.(1939).FS.DVDRip.x264-Tala99.mkv  [1.79 Gb]


Image Image Image Image Image Image

Post Reply

Return to “Black & White”